e-Commerce Partners Network




Статистика раздачи
Размер:  11,77 GB   |    Зарегистрирован:  1 год 6 месяцев   |    Скачан:  0 раз

Полного источника не было: Никогда

 
   
 
 

[Цитировать]

Название: Шофёр мисс Дэйзи
Оригинальное название: Driving Miss Daisy
Год выпуска: 1989
Страна: США
Жанр: драма, комедия
Продолжительность: 01:39:24
Перевод: профессиональный многоголосый, авторский
Режиссёр: Брюс Бересфорд
В ролях: Морган Фримен, Джессика Тэнди, Дэн Эйкройд, Патти ЛюПон, Эстер Ролли, Уильям Холл мл., Элвин М. Шугарман, Мюриэль Мур, Сильвия Калер, Кэролин Голд, Кристал Р. Фокс, Боб Ханна, Рэй МакКиннон, Эшли Джоуси, Джек Руссо, Индра А. Томас, Дин Дюбуа, Мартин Лютер Кинг, Д. Тейлор Лоб
Описание: Из сюжета мы узнаем об очень непростых отношениях одной довольно обеспеченной американки, которая по происхождению являлась еврейкой и ее водителя, который был афроамериканцем. Это произошло в Атланте. В те года, когда это произошло, повсюду были расовые предрассудки. Женщина являлась вдовой и сын начал настаивать, чтобы она для себя нашла водителя. Но, женщина не хочет, чтобы ее жизнь, как-то менялась…

Качество: BDRip 1080p Сравнение с исходником
Формат: MKV
Видео: MPEG-4 AVC, 13.4 Mбит/с, 1920x1080, 23,976 кадра/с
Аудио 1: русский, DTS, 1509 kbps, 6 ch, 48 kHz [профессиональный многоголосый]
Аудио 2: русский, AC3, 192 kbps, 2 ch, 48 kHz [авторский, Пётр Карцев]
Аудио 3: английский, DTS, 1509 kbps, 6 ch, 48 kHz [оригинал]]
Субтитры: русские
Награды
Британская академия, 1991 год
Победитель (1):
Лучшая женская роль (Джессика Тэнди)
Номинации (3):
Лучший фильм
Лучший режиссер (Брюс Бересфорд)
Лучший адаптированный сценарий
Оскар, 1990 год
Победитель (4):
Лучший фильм
Лучшая женская роль (Джессика Тэнди)
Лучший адаптированный сценарий
Лучший грим
Номинации (5):
Лучшая мужская роль (Морган Фриман)
Лучшая мужская роль второго плана (Дэн Эйкройд)
Лучшие декорации
Лучшие костюмы
Лучший монтаж
Золотой глобус, 1990 год
Победитель (3):
Лучший фильм (комедия или мюзикл)
Лучшая мужская роль (комедия или мюзикл) (Морган Фриман)
Лучшая женская роль (комедия или мюзикл) (Джессика Тэнди)
Берлинский кинофестиваль, 1990 год
Победитель (1):
Серебряный Медведь - лучшая актерская команда
Номинации (1):
Золотой Медведь
Инфо-файл
frame I:781 Avg QP:18.25 size:202654
frame P:26422 Avg QP:19.16 size:139064
frame B:115813 Avg QP:21.79 size: 55322
Общее
Уникальный идентификатор : 206221625333820501960655343999506163196 (0x9B24D720977E9CF295541D9F5A5FA5FC)
Полное имя : D:VideoШофёр мисс Дэйзи.1989.BDRip.1080p.mkv
Формат : Matroska
Версия формата : Version 4 / Version 2
Размер файла : 11,8 Гбайт
Продолжительность : 1 ч. 39 м.
Общий поток : 16,9 Мбит/сек
Название фильма : BDRip -- STarankov
Дата кодирования : UTC 2015-05-10 11:30:45
Программа кодирования : mkvmerge v7.8.0 ('River Man') 64bit built on Mar 27 2015 16:31:37
Библиотека кодирования : libebml v1.3.1 + libmatroska v1.4.2
_STATISTICS_WRITING_APP : mkvmerge v7.8.0 ('River Man') 64bit built on Mar 27 2015 16:31:37
_STATISTICS_WRITING_DATE_UTC : 2015-05-10 11:30:45
_STATISTICS_TAGS : BPS DURATION NUMBER_OF_FRAMES NUMBER_OF_BYTES
DURATION : 01:39:24.960000000
NUMBER_OF_FRAMES : 559215
NUMBER_OF_BYTES : 1125140648
Видео
Идентификатор : 1
Формат : AVC
Формат/Информация : Advanced Video Codec
Профиль формата : High@L4.1
Параметр CABAC формата : Да
Параметр ReFrames формата : 4 кадра
Идентификатор кодека : V_MPEG4/ISO/AVC
Продолжительность : 1 ч. 39 м.
Битрейт : 13,4 Мбит/сек
Ширина : 1920 пикселей
Высота : 1080 пикселей
Соотношение сторон : 16:9
Режим частоты кадров : Постоянный
Частота кадров : 23,976 кадра/сек
Цветовое пространство : YUV
Субдискретизация насыщенности : 4:2:0
Битовая глубина : 8 бит
Тип развёртки : Прогрессивная
Бит/(Пиксели*Кадры) : 0.270
Размер потока : 9,30 Гбайт (79%)
Библиотека кодирования : x264 core 146 r2538 121396c
Настройки программы : cabac=1 / ref=4 / deblock=1:-1:-1 / analyse=0x3:0x113 / me=umh / subme=10 / psy=1 / psy_rd=1.00:0.15 / mixed_ref=1 / me_range=32 / chroma_me=1 / trellis=2 / 8x8dct=1 / cqm=0 / deadzone=21,11 / fast_pskip=1 / chroma_qp_offset=-3 / threads=6 / lookahead_threads=1 / sliced_threads=0 / nr=0 / decimate=1 / interlaced=0 / bluray_compat=0 / constrained_intra=0 / bframes=8 / b_pyramid=2 / b_adapt=2 / b_bias=0 / direct=1 / weightb=1 / open_gop=0 / weightp=2 / keyint=230 / keyint_min=23 / scenecut=40 / intra_refresh=0 / rc_lookahead=40 / rc=crf / mbtree=0 / crf=19.0 / qcomp=0.60 / qpmin=0 / qpmax=69 / qpstep=4 / vbv_maxrate=40000 / vbv_bufsize=50000 / crf_max=0.0 / nal_hrd=none / filler=0 / ip_ratio=1.40 / pb_ratio=1.30 / aq=1:1.00
Язык : English
Default : Да
Forced : Нет
DURATION : 01:39:24.959000000
NUMBER_OF_FRAMES : 143016
NUMBER_OF_BYTES : 10239671309
_STATISTICS_WRITING_APP : mkvmerge v7.8.0 ('River Man') 64bit built on Mar 27 2015 16:31:37
_STATISTICS_WRITING_DATE_UTC : 2015-05-10 11:30:45
_STATISTICS_TAGS : BPS DURATION NUMBER_OF_FRAMES NUMBER_OF_BYTES
Аудио #1
Идентификатор : 2
Формат : DTS
Формат/Информация : Digital Theater Systems
Режим : 16
Параметр Endianness формата : Big
Идентификатор кодека : A_DTS
Продолжительность : 1 ч. 39 м.
Вид битрейта : Постоянный
Битрейт : 1509 Кбит/сек
Каналы : 6 каналов
Расположение каналов : Front: L C R, Side: L R, LFE
Частота : 48,0 КГц
Битовая глубина : 16 бит
Метод сжатия : С потерями
Размер потока : 1,05 Гбайт (9%)
Заголовок : MVO
Язык : Russian
Default : Да
Forced : Нет
Аудио #2
Идентификатор : 3
Формат : AC-3
Формат/Информация : Audio Coding 3
Профиль формата : Dolby Digital
Расширение режима : CM (complete main)
Параметр Endianness формата : Big
Идентификатор кодека : A_AC3
Продолжительность : 1 ч. 39 м.
Вид битрейта : Постоянный
Битрейт : 192 Кбит/сек
Каналы : 2 канала
Расположение каналов : Front: L R
Частота : 48,0 КГц
Битовая глубина : 16 бит
Метод сжатия : С потерями
Размер потока : 137 Мбайт (1%)
Заголовок : AVO (Пётр Карцев)
Язык : Russian
Default : Нет
Forced : Нет
Аудио #3
Идентификатор : 4
Формат : DTS
Формат/Информация : Digital Theater Systems
Режим : 16
Параметр Endianness формата : Big
Идентификатор кодека : A_DTS
Продолжительность : 1 ч. 39 м.
Вид битрейта : Постоянный
Битрейт : 1509 Кбит/сек
Каналы : 6 каналов
Расположение каналов : Front: L C R, Side: L R, LFE
Частота : 48,0 КГц
Битовая глубина : 16 бит
Метод сжатия : С потерями
Размер потока : 1,05 Гбайт (9%)
Заголовок : Original
Язык : English
Default : Нет
Forced : Нет
Текст
Идентификатор : 5
Формат : UTF-8
Идентификатор кодека : S_TEXT/UTF8
Идентификатор кодека/Информация : UTF-8 Plain Text
Заголовок : русские
Язык : Russian
Default : Нет
Forced : Нет
Скриншоты

e-Commerce Partners Network
[fast-picture.ru].t117.torrent 
Торрент: Зарегистрирован   [ 2015-05-11 14:43 ] · A4A6B26B99557C8BCC0A70781A9D3508A4DC0D11

Скачать .torrent

Скачать

30 KB

Статус: проверено
Скачан: 0 раз
Размер: 11,77 GB
Правила
Последние поблагодарившие...



Показать сообщения:    

Текущее время: 02-Дек 18:02

Часовой пояс: UTC ± 0


Вы не можете начинать темы
Вы не можете отвечать на сообщения
Вы не можете редактировать свои сообщения
Вы не можете удалять свои сообщения
Вы не можете голосовать в опросах
Вы не можете прикреплять файлы к сообщениям
Вы можете скачивать файлы

Сайт не предоставляет электронные версии произведений, а занимается лишь коллекционированием и каталогизацией ссылок, присылаемых и публикуемых на форуме нашими читателями. Если вы являетесь правообладателем какого-либо представленного материала и не желаете, чтобы ссылка на него находилась в нашем каталоге, свяжитесь с нами, и мы незамедлительно удалим ее. Файлы для обмена на трекере предоставлены пользователями сайта, и администрация не несет ответственности за их содержание. Просьба не заливать файлы, защищенные авторскими правами, а также файлы нелегального содержания!