e-Commerce Partners Network




Статистика раздачи
Размер:  1,92 GB   |    Зарегистрирован:  1 год 6 месяцев   |    Скачан:  1 раз

Полного источника не было: 6 месяцев 26 дней

 
   
 
 

[Цитировать]

Оригинальное название: Manowar - Blood in Brazil
Год выхода: 1998
Жанр: Heavy Metal
Выпущено: США, Германия, Spv
Исполнитель: Manowar
О фильме:
Концерт в Сан-Паоло, Бразилия. 26 сентября 1998 года.
Кодек: MPEG-4 AVC
Качество: DVDRip (AVC)
Видео: 708x478@708x538, 2751 Кбит/с, 29.970 fps
Звук: AC3, 6 ch, 448 Кбит/с
Продолжительность: 01:25:41
Перевод: Не требуется
Семпл
Треклист
01. Manowar
02. Metal Daze
03. Blood Of My Enemies
04. Kill With Power
05. Sign Of The Hammer
06. Gates Of Valhalla
07. Bass Solo / Sting Of The Bumblebee
08. The Gods Made Heavy Metal
09. Metal Warriors
10. Kings Of Metal
11. The Power
12. Hail And Kill
13. Black Wind, Fire And Steel
14. The Crown And The Ring (Lament Of The Kings) - Outro Version
Дополнительно:
1. Ringfest Performance-House Of Death
2. Ringfest Performance-Warriors Of The World United
MediaInfo
General
Unique ID : 181489399364107668616277897146846066592 (0x8889963DED1BA7179CC785072EFAB7A0)
Complete name : J:ManowarManowar-Blood.In.Brazil.1998.x264.DVDRip.(AVC)Manowar-Blood In Brazil.mkv
Format : Matroska
Format version : Version 4 / Version 2
File size : 1.70 GiB
Duration : 1h 16mn
Overall bit rate : 3 201 Kbps
Movie name : Manowar-Blood In Brazil / 1998 / Rip by PowerRock / ExKinoRay
Encoded date : UTC 2015-05-01 06:13:51
Writing application : mkvmerge v7.7.0 ('Six Voices') 64bit built on Feb 28 2015 23:39:33
Writing library : libebml v1.3.1 + libmatroska v1.4.2
Attachements : cover.jpg
DURATION : 01:16:07.648000000
NUMBER_OF_FRAMES : 142739
NUMBER_OF_BYTES : 255788288
_STATISTICS_WRITING_APP : mkvmerge v7.7.0 ('Six Voices') 64bit built on Feb 28 2015 23:39:33
_STATISTICS_WRITING_DATE_UT : 2015-05-01 06:13:51
_STATISTICS_TAGS : BPS DURATION NUMBER_OF_FRAMES NUMBER_OF_BYTES
Video
ID : 1
Format : AVC
Format/Info : Advanced Video Codec
Format profile : High@L4.1
Format settings, CABAC : Yes
Format settings, ReFrames : 8 frames
Codec ID : V_MPEG4/ISO/AVC
Duration : 1h 16mn
Bit rate : 2 751 Kbps
Width : 708 pixels
Height : 478 pixels
Display aspect ratio : 4:3
Original display aspect rat : 4:3
Frame rate mode : Constant
Frame rate : 29.970 fps
Color space : YUV
Chroma subsampling : 4:2:0
Bit depth : 8 bits
Scan type : Progressive
Bits/(Pixel*Frame) : 0.271
Stream size : 1.43 GiB (84%)
Title : Manowar-Blood In Brazil / 1998
Writing library : x264 core 146 r2538 121396c
Encoding settings : cabac=1 / ref=8 / deblock=1:-1:-1 / analyse=0x3:0x113 / me=umh / subme=10 / psy=1 / psy_rd=1.00:0.10 / mixed_ref=1 / me_range=24 / chroma_me=1 / trellis=2 / 8x8dct=1 / cqm=0 / deadzone=21,11 / fast_pskip=0 / chroma_qp_offset=-3 / threads=6 / lookahead_threads=1 / sliced_threads=0 / nr=0 / decimate=1 / interlaced=0 / bluray_compat=0 / constrained_intra=0 / bframes=7 / b_pyramid=2 / b_adapt=2 / b_bias=0 / direct=3 / weightb=1 / open_gop=0 / weightp=2 / keyint=250 / keyint_min=23 / scenecut=40 / intra_refresh=0 / rc_lookahead=50 / rc=2pass / mbtree=1 / bitrate=2751 / ratetol=1.0 / qcomp=0.60 / qpmin=10 / qpmax=51 / qpstep=4 / cplxblur=20.0 / qblur=0.5 / vbv_maxrate=14000 / vbv_bufsize=14000 / nal_hrd=none / filler=0 / ip_ratio=1.40 / aq=1:1.00
Default : Yes
Forced : No
DURATION : 01:16:07.663000000
NUMBER_OF_FRAMES : 136893
NUMBER_OF_BYTES : 1570790467
_STATISTICS_WRITING_APP : mkvmerge v7.7.0 ('Six Voices') 64bit built on Feb 28 2015 23:39:33
_STATISTICS_WRITING_DATE_UT : 2015-05-01 06:13:51
_STATISTICS_TAGS : BPS DURATION NUMBER_OF_FRAMES NUMBER_OF_BYTES
Audio
ID : 2
Format : AC-3
Format/Info : Audio Coding 3
Mode extension : CM (complete main)
Format settings, Endianness : Big
Codec ID : A_AC3
Duration : 1h 16mn
Bit rate mode : Constant
Bit rate : 448 Kbps
Channel(s) : 6 channels
Channel positions : Front: L C R, Side: L R, LFE
Sampling rate : 48.0 KHz
Compression mode : Lossy
Delay relative to video : 14ms
Stream size : 244 MiB (14%)
Language : English
Default : Yes
Forced : No
Menu
00:00:00.000 : :Manowar
00:05:08.000 : :Metal Daze
00:09:28.000 : :Blood Of My Enemies
00:13:23.000 : :Kill With Power
00:17:02.000 : :Sign Of The Hammer
00:21:59.000 : :Gates Of Valhalla
00:31:24.000 : :Bass Solo / Sting Of The Bumblebee
00:38:18.000 : :The Gods Made Heavy Metal
00:49:32.000 : :Metal Warriors
00:53:43.000 : :Kings Of Metal
00:57:19.000 : :The Power
01:01:25.000 : :Hail And Kill
01:06:07.000 : :Black Wind, Fire And Steel
Скриншоты

e-Commerce Partners Network
[fast-picture.ru].t160.torrent 
Торрент: Зарегистрирован   [ 2015-05-13 03:27 ] · 424E9C5BF31672E39212666A38571D2C588963B0

Скачать .torrent

Скачать

20 KB

Статус: проверено
Скачан: 1 раз
Размер: 1,92 GB
Правила
Последние поблагодарившие...



Показать сообщения:    

Текущее время: 03-Дек 13:38

Часовой пояс: UTC ± 0


Вы не можете начинать темы
Вы не можете отвечать на сообщения
Вы не можете редактировать свои сообщения
Вы не можете удалять свои сообщения
Вы не можете голосовать в опросах
Вы не можете прикреплять файлы к сообщениям
Вы можете скачивать файлы

Сайт не предоставляет электронные версии произведений, а занимается лишь коллекционированием и каталогизацией ссылок, присылаемых и публикуемых на форуме нашими читателями. Если вы являетесь правообладателем какого-либо представленного материала и не желаете, чтобы ссылка на него находилась в нашем каталоге, свяжитесь с нами, и мы незамедлительно удалим ее. Файлы для обмена на трекере предоставлены пользователями сайта, и администрация не несет ответственности за их содержание. Просьба не заливать файлы, защищенные авторскими правами, а также файлы нелегального содержания!