e-Commerce Partners Network




Статистика раздачи
Размер:  3,52 GB   |    Зарегистрирован:  1 год 7 месяцев   |    Скачан:  0 раз

Полного источника не было: Никогда

 
   
 
 

[Цитировать]

Информация о фильме
Название: Вне времени
Оригинальное название: The Lovers
Год выпуска: 2015
Жанр: фантастика, боевик, мелодрама, приключения
Режиссер: Роланд Жоффе
В ролях: Джош Хартнетт, Бипаша Басу, Абхай Деол, Тэмзин Эджертон, Элис Энглерт, Клер ван дер Бом, Махеш Джаду, Симона Кэссел, Темина Санни
О фильме: Этот фильм об одном начинающем археологе-подводнике Джее Финнеле. События происходят в середине 2020 года. Джей с женой проводили исследование очень старого торгового судна, затонувшего в 17 веке. Во время этого небезопасного погружения на территории Барьерного рифа главный герой спасает свою жену Лауру. В процессе этого спасения он, получив довольно опасное ранение, впал в кому. Находясь на грани жизни и смерти, он делает шаг за грань нашей реальности. В результате этого попадает в Индию. Идет 1778 год, и он работает офицером в Братании. Его зовут Джеймс Стюарт, который сильно влюблен в прекрасную Туладже. Главными в этом фильме выступают храбрость и большая сила любви.

Выпущено: Индия, Бельгия, Австралия / Bliss Media, Corsan, Limelight International Media Entertainment, Neelmudra Entertainment
Продолжительность: 01:49:20
Озвучивание: Любительское (многоголосое) [ICG]
Файл
Формат: MKV
Качество: WEB-DL 720p
Видео: 3940 kb/s, 1280x528
Аудио: Russian: AC3, 192 kb/s (2 ch) / English: AC3, 384 kb/s (6 ch)
Субтитры: English
MI
Format : Matroska
Format version : Version 4 / Version 2
File size : 3.52 GiB
Duration : 1h 49mn
Overall bit rate : 4 607 Kbps
Encoded date : UTC 2015-02-20 20:11:53
Writing application : mkvmerge v6.1.0 ('Old Devil') built on Mar 4 2013 09:10:42
Writing library : libebml v1.3.0 + libmatroska v1.4.0
Video
ID : 1
Format : AVC
Format/Info : Advanced Video Codec
Format profile : Main@L3.1
Format settings, CABAC : No
Format settings, ReFrames : 2 frames
Codec ID : V_MPEG4/ISO/AVC
Duration : 1h 49mn
Bit rate : 3 940 Kbps
Width : 1 280 pixels
Height : 528 pixels
Display aspect ratio : 2.40:1
Frame rate : 24.000 fps
Color space : YUV
Chroma subsampling : 4:2:0
Bit depth : 8 bits
Scan type : Progressive
Bits/(Pixel*Frame) : 0.243
Stream size : 3.01 GiB (86%)
Language : English
Default : Yes
Forced : No
Color primaries : BT.709-5, BT.1361, IEC 61966-2-4, SMPTE RP177
Transfer characteristics : BT.709-5, BT.1361
Matrix coefficients : BT.709-5, BT.1361, IEC 61966-2-4 709, SMPTE RP177
Audio #1
ID : 2
Format : AC-3
Format/Info : Audio Coding 3
Mode extension : CM (complete main)
Format settings, Endianness : Big
Codec ID : A_AC3
Duration : 1h 49mn
Bit rate mode : Constant
Bit rate : 192 Kbps
Channel(s) : 2 channels
Channel positions : Front: L R
Sampling rate : 48.0 KHz
Bit depth : 16 bits
Compression mode : Lossy
Stream size : 150 MiB (4%)
Language : Russian
Default : Yes
Forced : No
Audio #2
ID : 3
Format : AC-3
Format/Info : Audio Coding 3
Mode extension : CM (complete main)
Format settings, Endianness : Big
Codec ID : A_AC3
Duration : 1h 49mn
Bit rate mode : Constant
Bit rate : 384 Kbps
Channel(s) : 6 channels
Channel positions : Front: L C R, Side: L R, LFE
Sampling rate : 48.0 KHz
Bit depth : 16 bits
Compression mode : Lossy
Stream size : 300 MiB (8%)
Language : English
Default : No
Forced : No
Text
ID : 4
Format : UTF-8
Codec ID : S_TEXT/UTF8
Codec ID/Info : UTF-8 Plain Text
Language : English
Default : No
Forced : No
Menu
00:00:00.000 : en:1
00:10:37.000 : en:2
00:19:57.000 : en:3
00:30:47.000 : en:4
00:39:50.000 : en:5
00:51:51.000 : en:6
00:59:01.000 : en:7
01:10:01.000 : en:8
01:20:48.000 : en:9
01:29:44.000 : en:10
01:41:53.000 : en:11
Скриншоты

e-Commerce Partners Network
[fast-picture.ru].t18.torrent 
Торрент: Зарегистрирован   [ 2015-05-08 21:51 ] · 1C58D920D758A03768FB8772527B6B90E8635FC4

Скачать .torrent

Скачать

18 KB

Статус: проверено
Скачан: 0 раз
Размер: 3,52 GB
Правила
Последние поблагодарившие...



Показать сообщения:    

Текущее время: 09-Дек 17:19

Часовой пояс: UTC ± 0


Вы не можете начинать темы
Вы не можете отвечать на сообщения
Вы не можете редактировать свои сообщения
Вы не можете удалять свои сообщения
Вы не можете голосовать в опросах
Вы не можете прикреплять файлы к сообщениям
Вы можете скачивать файлы

Сайт не предоставляет электронные версии произведений, а занимается лишь коллекционированием и каталогизацией ссылок, присылаемых и публикуемых на форуме нашими читателями. Если вы являетесь правообладателем какого-либо представленного материала и не желаете, чтобы ссылка на него находилась в нашем каталоге, свяжитесь с нами, и мы незамедлительно удалим ее. Файлы для обмена на трекере предоставлены пользователями сайта, и администрация не несет ответственности за их содержание. Просьба не заливать файлы, защищенные авторскими правами, а также файлы нелегального содержания!