e-Commerce Partners Network




Статистика раздачи
Размер:  5,29 GB   |    Зарегистрирован:  1 год 6 месяцев   |    Скачан:  5 раз

Полного источника не было: 2 месяца 12 дней

 
   
 
 

[Цитировать]

Информация о фильме
Оригинальное название: Битва за Севастополь
Год выпуска: 2015
Жанр: Военный, ВОВ, драма, реальные события
Выпущено: Россия, Украина, Новые люди
Режиссер: Сергей Мокрицкий
В ролях: Юлия Пересильд, Евгений Цыганов, Олег Васильков, Никита Тарасов, Джоан Блэкэм, Полина Пахомова, Владимир Лилицкий, Анатолий Кот, Нателла Абелева-Таганова, Валерий Гришко
О фильме: Одна из немногих кинолент посвященных женщинам на войне. История известной женщины снайпера, принимавшей активное участие в обороне Севастополя. Уничтожив 309 фашистов, она покинула Севастополь, будучи серьезно раненой. После выздоровления оказалась в США с русской женской делегацией, ездила вместе с Элеонорой Рузвельт по Америке, убеждая открыть второй фронт.
Файл
Качество: BDRip (720p)
Видео: MPEG-4 AVC, 4019 Кбит/с, 1280x534
Аудио: Русский (AC3, 6 ch, 640 Кбит/с), английский (DTS, 6 ch, 1510 Кбит/с)
Размер: 5.29 ГБ
Продолжительность: 02:02:49
Язык: Русский
MI
Общее
Уникальный идентификатор : 205905231028177520458864902255190205743 (0x9AE7E7AF04A08FD0A11632D9E4F3E52F)
Полное имя : D:Bitva.za.Sevastoplb.2015.BDRip.720p.by.bog3417.mkv
Формат : Matroska
Версия формата : Version 2
Размер файла : 5,29 Гбайт
Продолжительность : 2 ч. 2 м.
Общий поток : 6167 Кбит/сек
Название фильма : Битва за севастополь reliz bog3417
Дата кодирования : UTC 2015-05-16 10:22:08
Программа кодирования : mkvmerge v7.4.0 ('Circles') 64bit built on Dec 12 2014 12:19:56
Библиотека кодирования : libebml v1.3.0 + libmatroska v1.4.1
_STATISTICS_WRITING_APP : mkvmerge v7.4.0 ('Circles') 64bit built on Dec 12 2014 12:19:56
_STATISTICS_WRITING_DATE_UTC : 2015-05-16 10:22:08
_STATISTICS_TAGS : BPS DURATION NUMBER_OF_FRAMES NUMBER_OF_BYTES
DURATION : 02:02:49.344000000
NUMBER_OF_FRAMES : 230292
NUMBER_OF_BYTES : 589547520
Видео
Идентификатор : 1
Формат : AVC
Формат/Информация : Advanced Video Codec
Профиль формата : High@L4.1
Параметр CABAC формата : Да
Параметр ReFrames формата : 9 кадров
Идентификатор кодека : V_MPEG4/ISO/AVC
Продолжительность : 2 ч. 2 м.
Битрейт : 4019 Кбит/сек
Ширина : 1280 пикселей
Высота : 534 пикселя
Соотношение сторон : 2,40:1
Режим частоты кадров : Постоянный
Частота кадров : 24,000 кадра/сек
Цветовое пространство : YUV
Субдискретизация насыщенности : 4:2:0
Битовая глубина : 8 бит
Тип развёртки : Прогрессивная
Бит/(Пиксели*Кадры) : 0.245
Размер потока : 3,34 Гбайт (63%)
Заголовок : Битва за севастополь reliz bog3417
Библиотека кодирования : x264 core 146 r2538 121396c
Настройки программы : cabac=1 / ref=9 / deblock=1:-3:-3 / analyse=0x3:0x33 / me=umh / subme=11 / psy=1 / psy_rd=1.00:0.15 / mixed_ref=1 / me_range=32 / chroma_me=1 / trellis=2 / 8x8dct=1 / cqm=0 / deadzone=21,11 / fast_pskip=0 / chroma_qp_offset=-3 / threads=12 / lookahead_threads=2 / sliced_threads=0 / nr=0 / decimate=0 / interlaced=0 / bluray_compat=0 / constrained_intra=0 / bframes=9 / b_pyramid=2 / b_adapt=2 / b_bias=0 / direct=3 / weightb=1 / open_gop=0 / weightp=2 / keyint=240 / keyint_min=24 / scenecut=40 / intra_refresh=0 / rc=2pass / mbtree=0 / bitrate=4019 / ratetol=1.0 / qcomp=0.60 / qpmin=0 / qpmax=69 / qpstep=4 / cplxblur=20.0 / qblur=0.5 / ip_ratio=1.40 / pb_ratio=1.30 / aq=1:1.00
Язык : English
Default : Да
Forced : Нет
DURATION : 02:02:49.381000000
NUMBER_OF_FRAMES : 176865
NUMBER_OF_BYTES : 3698515883
_STATISTICS_WRITING_APP : mkvmerge v7.4.0 ('Circles') 64bit built on Dec 12 2014 12:19:56
_STATISTICS_WRITING_DATE_UTC : 2015-05-16 10:22:08
_STATISTICS_TAGS : BPS DURATION NUMBER_OF_FRAMES NUMBER_OF_BYTES
Аудио #1
Идентификатор : 2
Формат : DTS
Формат/Информация : Digital Theater Systems
Режим : 16
Параметр Endianness формата : Big
Идентификатор кодека : A_DTS
Продолжительность : 2 ч. 2 м.
Вид битрейта : Постоянный
Битрейт : 1510 Кбит/сек
Каналы : 6 каналов
Расположение каналов : Front: L C R, Side: L R, LFE
Частота : 48,0 КГц
Битовая глубина : 24 бит
Метод сжатия : С потерями
Размер потока : 1,30 Гбайт (24%)
Заголовок : 1510
Язык : Russian
Default : Да
Forced : Нет
Аудио #2
Идентификатор : 3
Формат : AC-3
Формат/Информация : Audio Coding 3
Расширение режима : CM (complete main)
Параметр Endianness формата : Big
Идентификатор кодека : A_AC3
Продолжительность : 2 ч. 2 м.
Вид битрейта : Постоянный
Битрейт : 640 Кбит/сек
Каналы : 6 каналов
Расположение каналов : Front: L C R, Side: L R, LFE
Частота : 48,0 КГц
Битовая глубина : 16 бит
Метод сжатия : С потерями
Размер потока : 562 Мбайт (10%)
Заголовок : 640
Язык : Russian
Default : Нет
Forced : Нет
Меню
00:00:00.000 : en:00:00:00.000
00:10:08.250 : en:00:10:08.250
00:22:45.250 : en:00:22:45.250
00:31:29.458 : en:00:31:29.458
00:44:22.083 : en:00:44:22.083
00:51:33.833 : en:00:51:33.833
01:00:40.458 : en:01:00:40.458
01:10:27.917 : en:01:10:27.917
01:21:30.458 : en:01:21:30.458
01:31:47.458 : en:01:31:47.458
01:43:17.583 : en:01:43:17.583
01:56:30.333 : en:01:56:30.333
Скриншоты

e-Commerce Partners Network
[fast-picture.ru].t265.torrent 
Торрент: Зарегистрирован   [ 2015-05-16 12:51 ] · 11F652181D9807E62F57520B1D991B109C036504

Скачать .torrent

Скачать

27 KB

Статус: * не проверено
Скачан: 5 раз
Размер: 5,29 GB
Правила
Последние поблагодарившие...



Показать сообщения:    

Текущее время: 02-Дек 17:53

Часовой пояс: UTC ± 0


Вы не можете начинать темы
Вы не можете отвечать на сообщения
Вы не можете редактировать свои сообщения
Вы не можете удалять свои сообщения
Вы не можете голосовать в опросах
Вы не можете прикреплять файлы к сообщениям
Вы можете скачивать файлы

Сайт не предоставляет электронные версии произведений, а занимается лишь коллекционированием и каталогизацией ссылок, присылаемых и публикуемых на форуме нашими читателями. Если вы являетесь правообладателем какого-либо представленного материала и не желаете, чтобы ссылка на него находилась в нашем каталоге, свяжитесь с нами, и мы незамедлительно удалим ее. Файлы для обмена на трекере предоставлены пользователями сайта, и администрация не несет ответственности за их содержание. Просьба не заливать файлы, защищенные авторскими правами, а также файлы нелегального содержания!