e-Commerce Partners Network




Статистика раздачи
Размер:  2,77 GB   |    Зарегистрирован:  1 год 6 месяцев   |    Скачан:  0 раз

Полного источника не было: Никогда

 
   
 
 

[Цитировать]

Год выпуска: 2009
Жанр: драма, мелодрама
Режиссер: Коки Гидройч
Сценарий: Питер Баукер, Эмили Бронте
В ролях: Том Харди, Шарлотта Райли, Эндрю Линкольн, Сара Ланкашир, Берн Горман, Розалинд Халстэд, Ребекка Найт, Том Пэйн, Эндрю Хоули, Кевин МакНэлли
Описание:
Эта готическая драма, неоднократно воплощавшаяся на экране, рассказывает историю двух поколений семейных кланов Эрншоу и Линтон, о сложном переплетении их жизней и судеб и о роковом проклятии двух возлюбленных — Хитклиффа и Кэти.

Страна: Великобритания
Продолжительность: 01:09:19 / 01:08:23
Перевод: Профессиональный (Многоголосый, закадровый)
Качество: BDRip-AVC
Формат: MKV
Видео: 1136x640 (16:9), 25.000 fps, AVC, 2445 Kbps
Аудио: AC3, 448 Kbps, 48.0 KHz, 6 ch Front: L C R, Side: L R, LFE
M/I
General
Unique ID : 238774856298279166156273918320013501443 (0xB3A25D54891FB803907C714DA5906403)
Complete name : D:КИНОсериалыWuthering Heights (2009) BDRip-AVC_[-=DoMiNo=-]Part№2.mkv
Format : Matroska
Format version : Version 2
File size : 1.38 GiB
Duration : 1h 8mn
Overall bit rate : 2 895 Kbps
Encoded date : UTC 2014-02-12 12:33:11
Writing application : mkvmerge v5.8.0 ('No Sleep / Pillow') built on Sep 2 2012 15:37:04
Writing library : libebml v1.2.3 + libmatroska v1.3.0
Video
ID : 1
Format : AVC
Format/Info : Advanced Video Codec
Format profile : High@L4.1
Format settings, CABAC : Yes
Format settings, ReFrames : 12 frames
Codec ID : V_MPEG4/ISO/AVC
Duration : 1h 8mn
Bit rate : 2 445 Kbps
Width : 1 136 pixels
Height : 640 pixels
Display aspect ratio : 16:9
Frame rate mode : Constant
Frame rate : 25.000 fps
Color space : YUV
Chroma subsampling : 4:2:0
Bit depth : 8 bits
Scan type : Progressive
Bits/(Pixel*Frame) : 0.135
Stream size : 1.14 GiB (83%)
Writing library : x264 core 125 r2208 d9d2288
Encoding settings : cabac=1 / ref=12 / deblock=1:-1:-1 / analyse=0x3:0x113 / me=umh / subme=11 / psy=1 / psy_rd=1.00:0.20 / mixed_ref=1 / me_range=24 / chroma_me=1 / trellis=2 / 8x8dct=1 / cqm=0 / deadzone=21,11 / fast_pskip=0 / chroma_qp_offset=-6 / threads=6 / lookahead_threads=1 / sliced_threads=0 / slices=4 / nr=0 / decimate=0 / interlaced=0 / bluray_compat=0 / constrained_intra=0 / bframes=4 / b_pyramid=2 / b_adapt=2 / b_bias=0 / direct=3 / weightb=1 / open_gop=1 / weightp=2 / keyint=250 / keyint_min=25 / scenecut=40 / intra_refresh=0 / rc_lookahead=60 / rc=2pass / mbtree=1 / bitrate=2445 / ratetol=1.0 / qcomp=0.60 / qpmin=0 / qpmax=69 / qpstep=4 / cplxblur=20.0 / qblur=0.5 / vbv_maxrate=17500 / vbv_bufsize=14000 / nal_hrd=none / ip_ratio=1.40 / aq=1:1.50
Default : Yes
Forced : No
Audio
ID : 2
Format : AC-3
Format/Info : Audio Coding 3
Mode extension : CM (complete main)
Format settings, Endianness : Big
Codec ID : A_AC3
Duration : 1h 8mn
Bit rate mode : Constant
Bit rate : 448 Kbps
Channel(s) : 6 channels
Channel positions : Front: L C R, Side: L R, LFE
Sampling rate : 48.0 KHz
Bit depth : 16 bits
Compression mode : Lossy
Stream size : 219 MiB (15%)
Default : Yes
Forced : No
Скриншоты

e-Commerce Partners Network
[fast-picture.ru].t267.torrent 
Торрент: Зарегистрирован   [ 2015-05-16 13:11 ] · 3553C1B9606C45E6A9E9581CD338F23936E050CE

Скачать .torrent

Скачать

15 KB

Статус: проверено
Скачан: 0 раз
Размер: 2,77 GB
Правила
Последние поблагодарившие...



Показать сообщения:    

Текущее время: 09-Дек 17:20

Часовой пояс: UTC ± 0


Вы не можете начинать темы
Вы не можете отвечать на сообщения
Вы не можете редактировать свои сообщения
Вы не можете удалять свои сообщения
Вы не можете голосовать в опросах
Вы не можете прикреплять файлы к сообщениям
Вы можете скачивать файлы

Сайт не предоставляет электронные версии произведений, а занимается лишь коллекционированием и каталогизацией ссылок, присылаемых и публикуемых на форуме нашими читателями. Если вы являетесь правообладателем какого-либо представленного материала и не желаете, чтобы ссылка на него находилась в нашем каталоге, свяжитесь с нами, и мы незамедлительно удалим ее. Файлы для обмена на трекере предоставлены пользователями сайта, и администрация не несет ответственности за их содержание. Просьба не заливать файлы, защищенные авторскими правами, а также файлы нелегального содержания!