e-Commerce Partners Network




Статистика раздачи
Размер:  13,3 GB   |    Зарегистрирован:  1 год 6 месяцев   |    Скачан:  0 раз

Полного источника не было: Никогда

 
   
 
 

[Цитировать]

Название: Оскорбление
Оригинальное название: The Offence
Год выпуска: 1972
Страна: Великобритания, США
Жанр: драма, криминал, триллер
Продолжительность: 01:56:41
Перевод: профессиональный многоголосый, профессиональный двухголосый
Режиссёр: Сидни Люмет
В ролях: Шон Коннери, Тревор Ховард, Вивьен Мерчант, Иэн Бэннен, Питер Боулз, Джон Хэллам, Ричард Мур, Энтони Сагар
Описание: За 20 лет службы в полиции детектив Джонсон повидал много такого, от чего может расстроиться психика: убийства, грабежи, изнасилования и ещё бог знает что. Однажды по время очередного допроса у него возникает нервный срыв, и он руками забивает до смерти подозреваемого в растлении малолетних. Позже, придя в себя и проанализировав происшедшее, Джонсон осознаёт, что и сам не слишком отличается от своих «клиентов». Теперь он понимает, что жить, как прежде, он уже не сможет...

Качество: BDRip 1080p Сравнение с исходником
Формат: MKV
Видео: MPEG-4 AVC, 14.1 Mбит/с, 1800x1080, 23,976 кадра/с
Аудио 1: русский, AC3, 224 kbps, 2 ch, 48 kHz [профессиональный многоголосый, R5]
Аудио 2: русский, AC3, 192 kbps, 2 ch, 48 kHz [профессиональный двухголосый, HTB+]
Аудио 3: английский, DTS, 1509 kbps, 2 ch, 48 kHz [оригинал]
Субтитры 1: русские
Субтитры 2: английские (для слабослышащих)
Награды
Британская академия, 1974 год
Номинации (1):
Лучшая мужская роль второго плана (Иэн Бэннен)
Инфо-файл
frame I:864 Avg QP:18.38 size:166171
frame P:24498 Avg QP:19.54 size:114898
frame B:145453 Avg QP:21.32 size: 66304
Общее
Уникальный идентификатор : 210905327835408708878112539611303810138 (0x9EAAE37D50967E80A99F1EA4FE64945A)
Полное имя : D:VideoОскорбление.1972.BDRip.1080p.mkv
Формат : Matroska
Версия формата : Version 4 / Version 2
Размер файла : 13,3 Гбайт
Продолжительность : 1 ч. 56 м.
Общий поток : 16,3 Мбит/сек
Название фильма : BDRip -- STarankov
Дата кодирования : UTC 2015-05-16 09:04:12
Программа кодирования : mkvmerge v7.9.0 ('Birds') 64bit
Библиотека кодирования : libebml v1.3.1 + libmatroska v1.4.2
_STATISTICS_WRITING_APP : mkvmerge v7.9.0 ('Birds') 64bit
_STATISTICS_WRITING_DATE_UTC : 2015-05-16 09:04:12
_STATISTICS_TAGS : BPS DURATION NUMBER_OF_FRAMES NUMBER_OF_BYTES
DURATION : 01:50:37.505000000
NUMBER_OF_FRAMES : 1026
NUMBER_OF_BYTES : 38035
Видео
Идентификатор : 1
Формат : AVC
Формат/Информация : Advanced Video Codec
Профиль формата : High@L4.1
Параметр CABAC формата : Да
Параметр ReFrames формата : 4 кадра
Идентификатор кодека : V_MPEG4/ISO/AVC
Продолжительность : 1 ч. 56 м.
Битрейт : 14,1 Мбит/сек
Ширина : 1800 пикселей
Высота : 1080 пикселей
Соотношение сторон : 1,667
Режим частоты кадров : Постоянный
Частота кадров : 23,976 кадра/сек
Цветовое пространство : YUV
Субдискретизация насыщенности : 4:2:0
Битовая глубина : 8 бит
Тип развёртки : Прогрессивная
Бит/(Пиксели*Кадры) : 0.302
Размер потока : 11,5 Гбайт (86%)
Язык : English
Default : Да
Forced : Нет
_STATISTICS_WRITING_APP : mkvmerge v7.9.0 ('Birds') 64bit
_STATISTICS_WRITING_DATE_UTC : 2015-05-16 09:04:12
_STATISTICS_TAGS : BPS DURATION NUMBER_OF_FRAMES NUMBER_OF_BYTES
DURATION : 01:56:41.495000000
NUMBER_OF_FRAMES : 167868
NUMBER_OF_BYTES : 12598051983
Аудио #1
Идентификатор : 2
Формат : AC-3
Формат/Информация : Audio Coding 3
Расширение режима : CM (complete main)
Параметр Endianness формата : Big
Идентификатор кодека : A_AC3
Продолжительность : 1 ч. 56 м.
Вид битрейта : Постоянный
Битрейт : 224 Кбит/сек
Каналы : 2 канала
Расположение каналов : Front: L R
Частота : 48,0 КГц
Битовая глубина : 16 бит
Метод сжатия : С потерями
Задержка видео : 30 мс.
Размер потока : 187 Мбайт (1%)
Заголовок : MVO (R5)
Язык : Russian
Default : Да
Forced : Нет
Аудио #2
Идентификатор : 3
Формат : AC-3
Формат/Информация : Audio Coding 3
Расширение режима : CM (complete main)
Параметр Endianness формата : Big
Идентификатор кодека : A_AC3
Продолжительность : 1 ч. 56 м.
Вид битрейта : Постоянный
Битрейт : 192 Кбит/сек
Каналы : 2 канала
Расположение каналов : Front: L R
Частота : 48,0 КГц
Битовая глубина : 16 бит
Метод сжатия : С потерями
Задержка видео : 30 мс.
Размер потока : 160 Мбайт (1%)
Заголовок : DVO (HTB+)
Язык : Russian
Default : Нет
Forced : Нет
Аудио #3
Идентификатор : 4
Формат : DTS
Формат/Информация : Digital Theater Systems
Режим : 16
Параметр Endianness формата : Big
Идентификатор кодека : A_DTS
Продолжительность : 1 ч. 56 м.
Вид битрейта : Постоянный
Битрейт : 1509 Кбит/сек
Каналы : 6 каналов
Channel(s)_Original : 2 канала
Расположение каналов : Front: L R
Частота : 48,0 КГц
Битовая глубина : 24 бит
Метод сжатия : С потерями
Задержка видео : 9 мс.
Размер потока : 1,23 Гбайт (9%)
Заголовок : Original
Язык : English
Default : Нет
Forced : Нет
Текст #1
Идентификатор : 5
Формат : UTF-8
Идентификатор кодека : S_TEXT/UTF8
Идентификатор кодека/Информация : UTF-8 Plain Text
Заголовок : русские
Язык : Russian
Default : Нет
Forced : Нет
Текст #2
Идентификатор : 6
Формат : UTF-8
Идентификатор кодека : S_TEXT/UTF8
Идентификатор кодека/Информация : UTF-8 Plain Text
Заголовок : английские (для слабослышащих)
Default : Нет
Forced : Нет
Скриншоты

e-Commerce Partners Network
[fast-picture.ru].t274.torrent 
Торрент: Зарегистрирован   [ 2015-05-16 16:43 ] · 81CFE6F8ABEDFDCAB596E3CAB672A67836801504

Скачать .torrent

Скачать

34 KB

Статус: проверено
Скачан: 0 раз
Размер: 13,3 GB
Правила
Последние поблагодарившие...



Показать сообщения:    

Текущее время: 03-Дек 23:50

Часовой пояс: UTC ± 0


Вы не можете начинать темы
Вы не можете отвечать на сообщения
Вы не можете редактировать свои сообщения
Вы не можете удалять свои сообщения
Вы не можете голосовать в опросах
Вы не можете прикреплять файлы к сообщениям
Вы можете скачивать файлы

Сайт не предоставляет электронные версии произведений, а занимается лишь коллекционированием и каталогизацией ссылок, присылаемых и публикуемых на форуме нашими читателями. Если вы являетесь правообладателем какого-либо представленного материала и не желаете, чтобы ссылка на него находилась в нашем каталоге, свяжитесь с нами, и мы незамедлительно удалим ее. Файлы для обмена на трекере предоставлены пользователями сайта, и администрация не несет ответственности за их содержание. Просьба не заливать файлы, защищенные авторскими правами, а также файлы нелегального содержания!