e-Commerce Partners Network




Статистика раздачи
Размер:  5,5 GB   |    Зарегистрирован:  1 год 6 месяцев   |    Скачан:  4 раза

Полного источника не было: 5 дней

 
   
 
 

[Цитировать]

Информация о фильме
Название: Как стать принцессой
Оригинальное название: The Princess Diaries
Год выхода: 2001
Жанр: драма, комедия, семейный
Режиссер: Гэрри Маршалл
В ролях: Энн Хэтэуэй, Джули Эндрюс, Гектор Элизондо, Хизер Матараццо, Мэнди Мур, Кэролайн Гудолл, Роберт Шварцман, Эрик фон Деттен, Патрик Флюгер, Шон О’Брайан
Роли дублировали: Светлана Репетина, Светлана Шейченко, Валерий Кухарешин, Снежина Копрова, Ирина Мазуркевич
Описание: Миа – пятнадцать лет. Она проживает в городе – Сан Франциско. Девушка – обычный подросток, который ничем не отличается от других молодых людей. Однажды наступит день, когда умрет отец девочки и случайно она сможет узнать о том, что он являлся принцем одной европейской страны. И теперь девушка является наследницей оставшегося трона, причем самой единственной. Ее бабушка, которая также является королевой, специально приехала в Калифорнию, чтобы познакомиться с девушкой и рассказать про ее происхождении. Также она хочет узнать, примет ли девушка все богатство. Миа должна стать настоящей принцессой и забыть все то, что было у нее в прошлом. Забыть простые манеры и выучиться этикету. И к тому времени, когда ей исполнится шестнадцать, она сама должна принять решение, сможет ли управлять страной или просто желает остаться обычным подростком…

Страна: США
Продолжительность: 01:55:28
Перевод #1: Профессиональный (Дублированный)
Перевод #2: Профессиональный (Двухголосый, Закадровый)
Перевод #3: Авторский (Одноголосый, Закадровый) (Юрий Живов)
Перевод #4: Авторский (Одноголосый, Закадровый) (Андрей Дольский)
Перевод #5: Английский (Оригинал)
Файл
Формат: MKV
Качество: BDRip 720p (Источник: Blu-ray Remux)
Видео: 1280x720 (16:9), 23.976 fps, 5034 kbps, 0.228 bit/pixel
Аудио #1: AC-3, 6 ch, 384 kbps (Дублированный)
Аудио #2: AC-3, 6 ch, 384 kbps (Двухголосый)
Аудио #3: AC-3, 2 ch, 192 kbps (Одноголосый Юрий Живов)
Аудио #4: AC-3, 2 ch, 192 kbps (Одноголосый Андрей Дольский)
Аудио #5: AC-3, 6 ch, 640 kbps (Английский Оригинал)
Субтитры: Русские (Полные), Английские (SDH)
Скриншоты
MediaInfo
General
Unique ID : 201382676133265643980405690973683052848 (0x9780E4830B8AA97E937AEA32AEA5F130)
Complete name : The.Princess.Diaries.2001.720p.D.P2.A.mkv
Format : Matroska
Format version : Version 2
File size : 5.50 GiB
Duration : 1h 55mn
Overall bit rate : 6 825 Kbps
Movie name : Как Стать Принцессой / The Princess Diaries (2001)
Encoded date : UTC 2015-03-07 16:45:14
Writing application : mkvmerge v5.6.0 ('Kenya Kane') built on May 27 2012 16:44:04
Writing library : libebml v1.2.3 + libmatroska v1.3.0
Attachements : Cover.jpg
Video
ID : 1
Format : AVC
Format/Info : Advanced Video Codec
Format profile : High@L4.1
Format settings, CABAC : Yes
Format settings, ReFrames : 10 frames
Codec ID : V_MPEG4/ISO/AVC
Duration : 1h 55mn
Bit rate : 5 034 Kbps
Width : 1 280 pixels
Height : 720 pixels
Display aspect ratio : 16:9
Frame rate mode : Constant
Frame rate : 23.976 fps
Color space : YUV
Chroma subsampling : 4:2:0
Bit depth : 8 bits
Scan type : Progressive
Bits/(Pixel*Frame) : 0.228
Stream size : 3.95 GiB (72%)
Title : Как Стать Принцессой / The Princess Diaries (2001)
Writing library : x264 core 142 r2479 dd79a61
Encoding settings : cabac=1 / ref=10 / deblock=1:-3:-3 / analyse=0x3:0x113 / me=umh / subme=11 / psy=1 / psy_rd=1.00:0.00 / mixed_ref=1 / me_range=32 / chroma_me=1 / trellis=2 / 8x8dct=1 / cqm=0 / deadzone=21,11 / fast_pskip=1 / chroma_qp_offset=-2 / threads=6 / lookahead_threads=1 / sliced_threads=0 / nr=0 / decimate=1 / interlaced=0 / bluray_compat=0 / constrained_intra=0 / bframes=8 / b_pyramid=2 / b_adapt=2 / b_bias=0 / direct=3 / weightb=1 / open_gop=0 / weightp=2 / keyint=240 / keyint_min=23 / scenecut=40 / intra_refresh=0 / rc=2pass / mbtree=0 / bitrate=5034 / ratetol=1.0 / qcomp=0.60 / qpmin=0 / qpmax=69 / qpstep=4 / cplxblur=20.0 / qblur=0.5 / ip_ratio=1.40 / pb_ratio=1.30 / aq=1:1.00
Language : English
Default : Yes
Forced : No
Color primaries : BT.709
Transfer characteristics : BT.709
Matrix coefficients : BT.709
Audio #1
ID : 2
Format : AC-3
Format/Info : Audio Coding 3
Mode extension : CM (complete main)
Format settings, Endianness : Big
Codec ID : A_AC3
Duration : 1h 55mn
Bit rate mode : Constant
Bit rate : 384 Kbps
Channel(s) : 6 channels
Channel positions : Front: L C R, Side: L R, LFE
Sampling rate : 48.0 KHz
Bit depth : 16 bits
Compression mode : Lossy
Stream size : 317 MiB (6%)
Title : Дублированный 5.1
Language : Russian
Default : Yes
Forced : No
Audio #2
ID : 3
Format : AC-3
Format/Info : Audio Coding 3
Mode extension : CM (complete main)
Format settings, Endianness : Big
Codec ID : A_AC3
Duration : 1h 55mn
Bit rate mode : Constant
Bit rate : 384 Kbps
Channel(s) : 6 channels
Channel positions : Front: L C R, Side: L R, LFE
Sampling rate : 48.0 KHz
Bit depth : 16 bits
Compression mode : Lossy
Stream size : 317 MiB (6%)
Title : Двухголосый 5.1
Language : Russian
Default : No
Forced : No
Audio #3
ID : 4
Format : AC-3
Format/Info : Audio Coding 3
Mode extension : CM (complete main)
Format settings, Endianness : Big
Codec ID : A_AC3
Duration : 1h 55mn
Bit rate mode : Constant
Bit rate : 192 Kbps
Channel(s) : 2 channels
Channel positions : Front: L R
Sampling rate : 48.0 KHz
Bit depth : 16 bits
Compression mode : Lossy
Stream size : 159 MiB (3%)
Title : Юрий Живов 2.0
Language : Russian
Default : No
Forced : No
Audio #4
ID : 5
Format : AC-3
Format/Info : Audio Coding 3
Mode extension : CM (complete main)
Format settings, Endianness : Big
Codec ID : A_AC3
Duration : 1h 55mn
Bit rate mode : Constant
Bit rate : 192 Kbps
Channel(s) : 2 channels
Channel positions : Front: L R
Sampling rate : 48.0 KHz
Bit depth : 16 bits
Compression mode : Lossy
Stream size : 159 MiB (3%)
Title : Андрей Дольский 2.0
Language : Russian
Default : No
Forced : No
Audio #5
ID : 6
Format : AC-3
Format/Info : Audio Coding 3
Mode extension : CM (complete main)
Format settings, Endianness : Big
Codec ID : A_AC3
Duration : 1h 55mn
Bit rate mode : Constant
Bit rate : 640 Kbps
Channel(s) : 6 channels
Channel positions : Front: L C R, Side: L R, LFE
Sampling rate : 48.0 KHz
Bit depth : 16 bits
Compression mode : Lossy
Stream size : 529 MiB (9%)
Title : Английский 5.1 (Оригинал)
Language : English
Default : No
Forced : No
Text #1
ID : 7
Format : UTF-8
Codec ID : S_TEXT/UTF8
Codec ID/Info : UTF-8 Plain Text
Title : Русские (Полные)
Language : Russian
Default : No
Forced : No
Text #2
ID : 8
Format : UTF-8
Codec ID : S_TEXT/UTF8
Codec ID/Info : UTF-8 Plain Text
Title : Английские (SDH)
Language : English
Default : No
Forced : No

e-Commerce Partners Network
[fast-picture.ru].t360.torrent 
Торрент: Зарегистрирован   [ 2015-05-21 02:07 ] · 365778165C0E61779D86474C1D3793A43D6AA469

Скачать .torrent

Скачать

28 KB

Статус: проверено
Скачан: 4 раз
Размер: 5,5 GB
Правила
Последние поблагодарившие...



Показать сообщения:    

Текущее время: 11-Дек 07:59

Часовой пояс: UTC ± 0


Вы не можете начинать темы
Вы не можете отвечать на сообщения
Вы не можете редактировать свои сообщения
Вы не можете удалять свои сообщения
Вы не можете голосовать в опросах
Вы не можете прикреплять файлы к сообщениям
Вы можете скачивать файлы

Сайт не предоставляет электронные версии произведений, а занимается лишь коллекционированием и каталогизацией ссылок, присылаемых и публикуемых на форуме нашими читателями. Если вы являетесь правообладателем какого-либо представленного материала и не желаете, чтобы ссылка на него находилась в нашем каталоге, свяжитесь с нами, и мы незамедлительно удалим ее. Файлы для обмена на трекере предоставлены пользователями сайта, и администрация не несет ответственности за их содержание. Просьба не заливать файлы, защищенные авторскими правами, а также файлы нелегального содержания!