e-Commerce Partners Network




Статистика раздачи
Размер:  4,37 GB   |    Зарегистрирован:  1 год 6 месяцев   |    Скачан:  0 раз

Полного источника не было: Никогда

 
   
 
 

[Цитировать]

Информация о фильме
Название: Обещание
Оригинальное название: The Pledge
Год выхода: 2001
Жанр: Триллер, драма, криминал, детектив
Режиссер: Шон Пенн
В ролях: Джек Николсон, Бенисио Дель Торо, Аарон Экхарт, Хелен Миррен, Том Нунен, Робин Райт, Ванесса Редгрейв, Микки Рурк, Сэм Шепард, Лоис Смит
О фильме: Джерри Блэк является детективом. Он расследует убийства. Но, мужчина уже в довольно преклонном возрасте и поэтому отправляется на пенсию. В его последний день работы устроили вечеринку, где люди могут попрощаться с таким замечательным человеком и пожелать ей спокойной домашней жизни. Также коллеги вручают мужчине билет в поездку - в Мексику. Блэк давно уже хотел здесь очутиться и заняться рыбалкой.
Но буквально в то же самое время находят убитого ребенка – девочку, чей труп сильно изувечен. Вот и все сорвалось. И замечательная поездка и выход на пенсию. Ему необходимо ехать на это злополучное место, в сами горы. И именно он, решает рассказать родителям, что произошло с их ребенком. И мать его начинает требовать от детектива, чтобы он непременно нашел убийцу…

Выпущено: Clyde Is Hungry Films, Morgan Creek Productions, Warner Bros.
Продолжительность: 01:57:44
Перевод: Дублированный + Авторский (одноголосый, закадровый) Сергей Визгунов + Оригинал
Файл
Кодек: x264
Качество: HDTVRip 720p (источник: HDTRACKER / HDTV / 1080i)
Видео: 1280х534 (2,40:1), 3964 Kbps, 25,000 fps, 0.232 bit/pixel
Аудио #1: 48.0 kHz, AC3 Dolby Digital, 3/2 (L,C,R,l,r) + LFE ch, 448 kbps [Дубляж]
Аудио #2: 48.0 kHz, AC3 Dolby Digital, 3/2 (L,C,R,l,r) + LFE ch, 448 kbps [Авторский, С. Визгунов]
Аудио #3: 48.0 kHz, AC3 Dolby Digital, 3/2 (L,C,R,l,r) + LFE ch, 448 kbps [Оригинал, Английский]
Субтитры: Русские, английские
Скриншоты:
MediaInfo
Общее
Уникальный идентификатор : 187473340065798299444768546056567299642 (0x8D0A0D4BFC5D1A5B9A52FFBC23889E3A)
Полное имя : E:The.Pledge.2001.x264.HDTVRip.720p.mkv
Формат : Matroska
Версия формата : Version 2
Размер файла : 4,37 Гбайт
Продолжительность : 1 ч. 57 м.
Общий поток : 5310 Кбит/сек
Дата кодирования : UTC 2015-05-10 07:05:08
Программа кодирования : mkvmerge v5.8.0 ('No Sleep / Pillow') built on Sep 2 2012 15:37:04
Библиотека кодирования : libebml v1.2.3 + libmatroska v1.3.0
Видео
Идентификатор : 1
Формат : AVC
Формат/Информация : Advanced Video Codec
Профиль формата : High@L4.1
Параметр CABAC формата : Да
Параметр ReFrames формата : 9 кадров
Идентификатор кодека : V_MPEG4/ISO/AVC
Продолжительность : 1 ч. 57 м.
Битрейт : 3964 Кбит/сек
Ширина : 1280 пикселей
Высота : 534 пикселя
Соотношение сторон : 2,40:1
Режим частоты кадров : Постоянный
Частота кадров : 25,000 кадров/сек
Цветовое пространство : YUV
Субдискретизация насыщенности : 4:2:0
Битовая глубина : 8 бит
Тип развёртки : Прогрессивная
Бит/(Пиксели*Кадры) : 0.232
Размер потока : 3,17 Гбайт (73%)
Библиотека кодирования : x264 core 146 r2538 121396c
Настройки программы : cabac=1 / ref=9 / deblock=1:-3:-3 / analyse=0x3:0x133 / me=umh / subme=11 / psy=1 / psy_rd=1.00:0.10 / mixed_ref=1 / me_range=48 / chroma_me=1 / trellis=2 / 8x8dct=1 / cqm=0 / deadzone=21,11 / fast_pskip=0 / chroma_qp_offset=-3 / threads=12 / lookahead_threads=1 / sliced_threads=0 / nr=0 / decimate=0 / interlaced=0 / bluray_compat=0 / constrained_intra=0 / bframes=6 / b_pyramid=2 / b_adapt=2 / b_bias=0 / direct=3 / weightb=1 / open_gop=0 / weightp=2 / keyint=250 / keyint_min=25 / scenecut=40 / intra_refresh=0 / rc=2pass / mbtree=0 / bitrate=3964 / ratetol=1.0 / qcomp=0.60 / qpmin=0 / qpmax=69 / qpstep=4 / cplxblur=20.0 / qblur=0.5 / ip_ratio=1.40 / pb_ratio=1.30 / aq=1:0.90
Язык : English
Default : Да
Forced : Нет
Аудио #1
Идентификатор : 2
Формат : AC-3
Формат/Информация : Audio Coding 3
Расширение режима : CM (complete main)
Параметр Endianness формата : Big
Идентификатор кодека : A_AC3
Продолжительность : 1 ч. 57 м.
Вид битрейта : Постоянный
Битрейт : 448 Кбит/сек
Каналы : 6 каналов
Расположение каналов : Front: L C R, Side: L R, LFE
Частота : 48,0 КГц
Битовая глубина : 16 бит
Метод сжатия : С потерями
Размер потока : 377 Мбайт (8%)
Заголовок : Дубляж
Язык : Russian
Default : Да
Forced : Нет
Аудио #2
Идентификатор : 3
Формат : AC-3
Формат/Информация : Audio Coding 3
Расширение режима : CM (complete main)
Параметр Endianness формата : Big
Идентификатор кодека : A_AC3
Продолжительность : 1 ч. 57 м.
Вид битрейта : Постоянный
Битрейт : 448 Кбит/сек
Каналы : 6 каналов
Расположение каналов : Front: L C R, Side: L R, LFE
Частота : 48,0 КГц
Битовая глубина : 16 бит
Метод сжатия : С потерями
Размер потока : 377 Мбайт (8%)
Заголовок : Авторский, С. Визгунов
Язык : Russian
Default : Нет
Forced : Нет
Аудио #3
Идентификатор : 4
Формат : AC-3
Формат/Информация : Audio Coding 3
Расширение режима : CM (complete main)
Параметр Endianness формата : Big
Идентификатор кодека : A_AC3
Продолжительность : 1 ч. 57 м.
Вид битрейта : Постоянный
Битрейт : 448 Кбит/сек
Каналы : 6 каналов
Расположение каналов : Front: L C R, Side: L R, LFE
Частота : 48,0 КГц
Битовая глубина : 16 бит
Метод сжатия : С потерями
Размер потока : 377 Мбайт (8%)
Заголовок : Оригинал, Английский
Язык : English
Default : Нет
Forced : Нет
Текст #1
Идентификатор : 5
Формат : UTF-8
Идентификатор кодека : S_TEXT/UTF8
Идентификатор кодека/Информация : UTF-8 Plain Text
Язык : Russian
Default : Нет
Forced : Нет
Текст #2
Идентификатор : 6
Формат : UTF-8
Идентификатор кодека : S_TEXT/UTF8
Идентификатор кодека/Информация : UTF-8 Plain Text
Язык : English
Default : Нет
Forced : Нет
x264
3 full pass
x264 [info]: frame I:1325 Avg QP:14.96 size: 88775
x264 [info]: frame P:42928 Avg QP:17.48 size: 35595
x264 [info]: frame B:132336 Avg QP:19.27 size: 14009

e-Commerce Partners Network
[fast-picture.ru].t361.torrent 
Торрент: Зарегистрирован   [ 2015-05-21 02:11 ] · 32A232B7D85248129D76FACAFEAA3B2D848823A7

Скачать .torrent

Скачать

11 KB

Статус: проверено
Скачан: 0 раз
Размер: 4,37 GB
Правила
Последние поблагодарившие...



Показать сообщения:    

Текущее время: 11-Дек 08:00

Часовой пояс: UTC ± 0


Вы не можете начинать темы
Вы не можете отвечать на сообщения
Вы не можете редактировать свои сообщения
Вы не можете удалять свои сообщения
Вы не можете голосовать в опросах
Вы не можете прикреплять файлы к сообщениям
Вы можете скачивать файлы

Сайт не предоставляет электронные версии произведений, а занимается лишь коллекционированием и каталогизацией ссылок, присылаемых и публикуемых на форуме нашими читателями. Если вы являетесь правообладателем какого-либо представленного материала и не желаете, чтобы ссылка на него находилась в нашем каталоге, свяжитесь с нами, и мы незамедлительно удалим ее. Файлы для обмена на трекере предоставлены пользователями сайта, и администрация не несет ответственности за их содержание. Просьба не заливать файлы, защищенные авторскими правами, а также файлы нелегального содержания!