e-Commerce Partners Network




Статистика раздачи
Размер:  3,07 GB   |    Зарегистрирован:  1 год 6 месяцев   |    Скачан:  0 раз

Полного источника не было: Никогда

 
   
 
 

[Цитировать]

Информация о фильме
Название: Давление
Оригинальное название: The Squeeze
Год выхода: 2015
Жанр: драма, комедия, спорт
Режиссер: Терри Джастроу
В ролях: Джереми Самптер, Кэтрин ЛаНаса, Джейсон Доринг, Кристофер МакДональд, Майкл Нури, Джиллиан Мюррэй, Мекиа Кокс, Рошелль Эйкот, Майкл Бисли, Дэвид О’Доннелл
О фильме: Очень скромный молодой парень, имеющие далеко незаурядные навыки, проживающий в небольшом южном городке, случайно был втянут в матчи, связанные с гольфом. Причем игра здесь очень серьезная, а ставки достаточно высоки. А игроки просто ошеломительные…

Выпущено: США / Jam Films
Продолжительность: 01:35:03
Озвучивание: Любительское (одноголосое) [Andi]
Файл
Формат: MKV
Качество: WEB-DL 720p
Видео: 3955 kb/s, 1280x534
Аудио: Russian: AC3, 192 kb/s (2 ch) / English: AC3, 384 kb/s (6 ch)
Субтитры: English
MI
Format : Matroska
Format version : Version 4 / Version 2
File size : 3.07 GiB
Duration : 1h 35mn
Overall bit rate : 4 623 Kbps
Encoded date : UTC 2015-05-16 18:46:12
Writing application : mkvmerge v6.1.0 ('Old Devil') built on Mar 4 2013 09:10:42
Writing library : libebml v1.3.0 + libmatroska v1.4.0
Video
ID : 1
Format : AVC
Format/Info : Advanced Video Codec
Format profile : Main@L3.1
Format settings, CABAC : No
Format settings, ReFrames : 2 frames
Codec ID : V_MPEG4/ISO/AVC
Duration : 1h 35mn
Bit rate : 3 955 Kbps
Width : 1 280 pixels
Height : 534 pixels
Display aspect ratio : 2.40:1
Frame rate : 23.976 fps
Color space : YUV
Chroma subsampling : 4:2:0
Bit depth : 8 bits
Scan type : Progressive
Bits/(Pixel*Frame) : 0.241
Stream size : 2.63 GiB (86%)
Language : English
Default : Yes
Forced : No
Color primaries : BT.709-5, BT.1361, IEC 61966-2-4, SMPTE RP177
Transfer characteristics : BT.709-5, BT.1361
Matrix coefficients : BT.709-5, BT.1361, IEC 61966-2-4 709, SMPTE RP177
Audio #1
ID : 2
Format : AC-3
Format/Info : Audio Coding 3
Mode extension : CM (complete main)
Format settings, Endianness : Big
Codec ID : A_AC3
Duration : 1h 35mn
Bit rate mode : Constant
Bit rate : 192 Kbps
Channel(s) : 2 channels
Channel positions : Front: L R
Sampling rate : 48.0 KHz
Bit depth : 16 bits
Compression mode : Lossy
Stream size : 131 MiB (4%)
Language : Russian
Default : Yes
Forced : No
Audio #2
ID : 3
Format : AC-3
Format/Info : Audio Coding 3
Mode extension : CM (complete main)
Format settings, Endianness : Big
Codec ID : A_AC3
Duration : 1h 35mn
Bit rate mode : Constant
Bit rate : 384 Kbps
Channel(s) : 6 channels
Channel positions : Front: L C R, Side: L R, LFE
Sampling rate : 48.0 KHz
Bit depth : 16 bits
Compression mode : Lossy
Stream size : 261 MiB (8%)
Language : English
Default : No
Forced : No
Text
ID : 4
Format : UTF-8
Codec ID : S_TEXT/UTF8
Codec ID/Info : UTF-8 Plain Text
Language : English
Default : No
Forced : No
Menu
00:00:00.000 : en:1
00:06:45.000 : en:2
00:15:09.000 : en:3
00:24:50.000 : en:4
00:33:06.000 : en:5
00:41:33.000 : en:6
00:52:02.000 : en:7
00:59:39.000 : en:8
01:08:45.000 : en:9
01:16:34.000 : en:10
01:23:26.000 : en:11
01:30:09.000 : en:12

e-Commerce Partners Network
[fast-picture.ru].t362.torrent 
Торрент: Зарегистрирован   [ 2015-05-21 02:15 ] · C0200B1892BBB76668D7B6A270309C209A95B434

Скачать .torrent

Скачать

16 KB

Статус: проверено
Скачан: 0 раз
Размер: 3,07 GB
Правила
Последние поблагодарившие...



Показать сообщения:    

Текущее время: 09-Дек 17:22

Часовой пояс: UTC ± 0


Вы не можете начинать темы
Вы не можете отвечать на сообщения
Вы не можете редактировать свои сообщения
Вы не можете удалять свои сообщения
Вы не можете голосовать в опросах
Вы не можете прикреплять файлы к сообщениям
Вы можете скачивать файлы

Сайт не предоставляет электронные версии произведений, а занимается лишь коллекционированием и каталогизацией ссылок, присылаемых и публикуемых на форуме нашими читателями. Если вы являетесь правообладателем какого-либо представленного материала и не желаете, чтобы ссылка на него находилась в нашем каталоге, свяжитесь с нами, и мы незамедлительно удалим ее. Файлы для обмена на трекере предоставлены пользователями сайта, и администрация не несет ответственности за их содержание. Просьба не заливать файлы, защищенные авторскими правами, а также файлы нелегального содержания!