e-Commerce Partners Network




Статистика раздачи
Размер:  1,64 GB   |    Зарегистрирован:  1 год 6 месяцев   |    Скачан:  0 раз

Полного источника не было: Никогда

 
   
 
 

[Цитировать]

Информация о фильме
Название: Поклонник
Оригинальное название: The Boy Next Door
Год выхода: 2015
Жанр: триллер
Режиссер: Роб Коэн
В ролях: Дженнифер Лопез, Райан Гузман, Йен Нельсон, Джон Корбетт, Кристин Ченоуэт, Лекси Аткинс, Хилл Харпер, Джек Уоллес, Адам Хикс, Франсуа Чау
О фильме: Школьная учительница Клэр рассталась с мужем несколько месяцев назад. Она работает, воспитывает сына-школьника и не уделяет внимания своей личной жизни. Однажды по соседству с Клэр поселяется привлекательный юноша-тинейджер Ной. Парень начинает проявлять к женщине повышенный интерес, и однажды их отношения выходят за грань приличий. Поздно осознав, что натворила, Клэр хочет положить конец интрижке, но вопреки ее воле взаимоотношения этой героини картины «Поклонник» с ее соседом принимают зловещий оборот…

Выпущено: США
Продолжительность: 01:31:05
Озвучивание: Дублированное [чистый звук]
Файл
Качество: HDRip (AVC)
Видео: MPEG-4 AVC, 1756 Кбит/с, 1024x426
Аудио: Русский (AC3, 2 ch, 384 Кбит/с), английский (AC3, 6 ch, 448 Кбит/с)
MI
General
Unique ID : 201474018360147358053694250603063641747 (0x97927C08089AA2CEA6C07FCBF3298693)
Complete name : C:Boy.next.door.2015.D.HDRip.AVC.ExKinoRay.mkv
Format : Matroska
Format version : Version 4 / Version 2
File size : 1.64 GiB
Duration : 1h 31mn
Overall bit rate : 2 578 Kbps
Movie name : The Boy Next Door 2015 from ExKinoRay
Encoded date : UTC 2015-04-16 03:48:18
Writing application : mkvmerge v6.6.0 ('The Edge Of The In Between') built on Dec 1 2013 17:55:00
Writing library : libebml v1.3.0 + libmatroska v1.4.1
Video
ID : 1
Format : AVC
Format/Info : Advanced Video Codec
Format profile : High@L4.1
Format settings, CABAC : Yes
Format settings, ReFrames : 10 frames
Codec ID : V_MPEG4/ISO/AVC
Duration : 1h 31mn
Bit rate : 1 756 Kbps
Width : 1 024 pixels
Height : 426 pixels
Display aspect ratio : 2.40:1
Frame rate mode : Constant
Frame rate : 23.976 fps
Color space : YUV
Chroma subsampling : 4:2:0
Bit depth : 8 bits
Scan type : Progressive
Bits/(Pixel*Frame) : 0.168
Stream size : 1.08 GiB (66%)
Title : Enigma
Writing library : x264 core 133 r2334 a3ac64b
Encoding settings : cabac=1 / ref=10 / deblock=1:-2:-2 / analyse=0x3:0x113 / me=umh / subme=10 / psy=1 / psy_rd=1.05:0.15 / mixed_ref=1 / me_range=32 / chroma_me=1 / trellis=2 / 8x8dct=1 / cqm=0 / deadzone=21,11 / fast_pskip=0 / chroma_qp_offset=-3 / threads=12 / lookahead_threads=2 / sliced_threads=0 / nr=0 / decimate=0 / interlaced=0 / bluray_compat=0 / constrained_intra=0 / bframes=9 / b_pyramid=2 / b_adapt=2 / b_bias=0 / direct=3 / weightb=1 / open_gop=0 / weightp=2 / keyint=240 / keyint_min=23 / scenecut=40 / intra_refresh=0 / rc=2pass / mbtree=0 / bitrate=1756 / ratetol=1.0 / qcomp=0.60 / qpmin=0 / qpmax=51 / qpstep=4 / cplxblur=20.0 / qblur=0.5 / ip_ratio=1.40 / pb_ratio=1.30 / aq=1:1.00
Default : Yes
Forced : No
Color primaries : BT.709
Transfer characteristics : BT.709
Matrix coefficients : BT.709
Audio #1
ID : 2
Format : AC-3
Format/Info : Audio Coding 3
Mode extension : CM (complete main)
Format settings, Endianness : Big
Codec ID : A_AC3
Duration : 1h 31mn
Bit rate mode : Constant
Bit rate : 384 Kbps
Channel(s) : 2 channels
Channel positions : Front: L R
Sampling rate : 48.0 KHz
Bit depth : 16 bits
Compression mode : Lossy
Stream size : 250 MiB (15%)
Title : Line
Language : Russian
Default : Yes
Forced : No
Audio #2
ID : 3
Format : AC-3
Format/Info : Audio Coding 3
Mode extension : CM (complete main)
Format settings, Endianness : Big
Codec ID : A_AC3
Duration : 1h 31mn
Bit rate mode : Constant
Bit rate : 448 Kbps
Channel(s) : 6 channels
Channel positions : Front: L C R, Side: L R, LFE
Sampling rate : 48.0 KHz
Bit depth : 16 bits
Compression mode : Lossy
Stream size : 292 MiB (17%)
Language : English
Default : No
Forced : No
Menu
00:00:00.000 : en:00:00:00.000
00:04:29.769 : en:00:04:29.769
00:10:39.931 : en:00:10:39.931
00:15:32.890 : en:00:15:32.890
00:20:31.021 : en:00:20:31.021
00:24:41.730 : en:00:24:41.730
00:26:53.570 : en:00:26:53.570
00:30:49.681 : en:00:30:49.681
00:35:51.441 : en:00:35:51.441
00:40:20.627 : en:00:40:20.627
00:45:47.370 : en:00:45:47.370
00:49:24.795 : en:00:49:24.795
00:53:28.956 : en:00:53:28.956
00:56:43.650 : en:00:56:43.650
01:00:45.851 : en:01:00:45.851
01:03:44.988 : en:01:03:44.988
01:09:31.042 : en:01:09:31.042
01:14:06.609 : en:01:14:06.609
01:19:50.953 : en:01:19:50.953
01:24:33.527 : en:01:24:33.527
Скриншоты
Автор релиза:

e-Commerce Partners Network
[fast-picture.ru].t372.torrent 
Торрент: Зарегистрирован   [ 2015-05-21 02:41 ] · 697A571CAF3E8D877F53E674C1258CE1BBAE9E34

Скачать .torrent

Скачать

17 KB

Статус: проверено
Скачан: 0 раз
Размер: 1,64 GB
Правила
Последние поблагодарившие...



Показать сообщения:    

Текущее время: 11-Дек 07:55

Часовой пояс: UTC ± 0


Вы не можете начинать темы
Вы не можете отвечать на сообщения
Вы не можете редактировать свои сообщения
Вы не можете удалять свои сообщения
Вы не можете голосовать в опросах
Вы не можете прикреплять файлы к сообщениям
Вы можете скачивать файлы

Сайт не предоставляет электронные версии произведений, а занимается лишь коллекционированием и каталогизацией ссылок, присылаемых и публикуемых на форуме нашими читателями. Если вы являетесь правообладателем какого-либо представленного материала и не желаете, чтобы ссылка на него находилась в нашем каталоге, свяжитесь с нами, и мы незамедлительно удалим ее. Файлы для обмена на трекере предоставлены пользователями сайта, и администрация не несет ответственности за их содержание. Просьба не заливать файлы, защищенные авторскими правами, а также файлы нелегального содержания!