e-Commerce Partners Network




Статистика раздачи
Размер:  7,77 GB   |    Зарегистрирован:  1 год 6 месяцев   |    Скачан:  1 раз

Полного источника не было: 8 месяцев 28 дней

 
   
 
 

[Цитировать]

Информация о фильме
Название: Планета Ка-Пэкс
Оригинальное название: K-PAX
Год выхода: 2001
Жанр: Фантастика, драма
Режиссер: Иэн Софтли
В ролях: Кевин Спейси, Джефф Бриджес, Мэри МакКормак, Элфри Вудард, Дэвид Патрик Келли, Сол Уильямс, Питер Герети, Селия Уэстон, Аджай Найду, Трэйси Вилар
О фильме: Однажды, в один психиатрический институт, который находится в Манхэттене, привозят довольно эксцентричного человека. Который носит черные очки. Он говорит, что его зовут Протом, и доказывает, что это совершенно не его родина и тут он оказался случайно. А на самом деле его планета очень далеко и называется – Ка-Пэкс. И здесь он оказался потому, что его перенес луч света. Очень опытный доктор Пауэлл приложил все усилия, чтобы разгадать этого загадочного человека, и все, что он говорит…

Выпущено: Universal, IMF Internationale Medien und Film GmbH & Co. 2. Produktions KG, Intermedia Films
Продолжительность: 02:00:21
Перевод: Профессиональный (многоголосый, закадровый) Liga HQ + Профессиональный (двухголосый закадровый) Twister / Paradise + Профессиональный (многоголосый, закадровый) LDV + Профессиональный (двухголосый закадровый) НТВ+ + Авторский (одноголосый, закадровый) Юрий Сербин + Авторский (одноголосый, закадровый) Сергей Визгунов + Авторский (одноголосый, закадровый) Юрий Живов + Оригинал
Файл
Кодек: x264
Качество: D-TheaterRip 720p (источник: D-Theater / 1080i)
Видео: 1280х544 (2.35:1), 5973 Kbps, 23.976 fps, 0.358 bit/pixel
Аудио #1: 48.0 kHz, AC3 Dolby Digital, 3/2 (L,C,R,l,r) + LFE ch, 384 kbps [Многоголосый, Liga HQ]
Аудио #2: 48.0 kHz, AC3 Dolby Digital, 3/2 (L,C,R,l,r) + LFE ch, 448 kbps [Двухголосый, Twister / Paradise]
Аудио #3: 48.0 kHz, AC3 Dolby Digital, 3/2 (L,C,R,l,r) + LFE ch, 448 kbps [Многоголосый, LDV]
Аудио #4: 48.0 kHz, AC3 Dolby Digital, 2/0 (L,R) ch, 192 kbps [Двухголосый, НТВ+]
Аудио #5: 48.0 kHz, AC3 Dolby Digital, 3/2 (L,C,R,l,r) + LFE ch, 448 kbps [Авторский, Ю. Сербин]
Аудио #6: 48.0 kHz, AC3 Dolby Digital, 3/2 (L,C,R,l,r) + LFE ch, 448 kbps [Авторский, С. Визгунов]
Аудио #7: 48.0 kHz, AC3 Dolby Digital, 3/2 (L,C,R,l,r) + LFE ch, 448 kbps [Авторский, Ю. Живов]
Аудио #8: 48.0 kHz, AC3 Dolby Digital, 3/2 (L,C,R,l,r) + LFE ch, 448 kbps [Оригинал, Английский]
Субтитры: Русские, английские
Семпл
x264
3 full pass
x264 [info]: frame I:1255 Avg QP:13.41 size:101684
x264 [info]: frame P:33830 Avg QP:15.74 size: 51472
x264 [info]: frame B:138055 Avg QP:17.46 size: 25516
MediaInfo
General
Unique ID : 207454871254839718824783778408734604044 (0x9C125AD87D57CFC99E55626D28DF3B0C)
Complete name : E:K-Pax.2001.x264.D-TheaterRip.720р.mkv
Format : Matroska
Format version : Version 2
File size : 7.77 GiB
Duration : 2h 0mn
Overall bit rate : 9 239 Kbps
Movie name : Планета Ка-Пэкс / K-PAX (Йен Софтли / Iain Softley) 2001
Encoded date : UTC 2015-04-30 22:10:53
Writing application : mkvmerge v5.8.0 ('No Sleep / Pillow') built on Sep 2 2012 15:37:04
Writing library : libebml v1.2.3 + libmatroska v1.3.0
Attachements : Cover.png
Video
ID : 1
Format : AVC
Format/Info : Advanced Video Codec
Format profile : High@L4.1
Format settings, CABAC : Yes
Format settings, ReFrames : 9 frames
Codec ID : V_MPEG4/ISO/AVC
Duration : 2h 0mn
Bit rate : 5 973 Kbps
Width : 1 280 pixels
Height : 544 pixels
Display aspect ratio : 2.35:1
Frame rate mode : Constant
Frame rate : 23.976 fps
Color space : YUV
Chroma subsampling : 4:2:0
Bit depth : 8 bits
Scan type : Progressive
Bits/(Pixel*Frame) : 0.358
Stream size : 4.87 GiB (63%)
Writing library : x264 core 146 r2538 121396c
Encoding settings : cabac=1 / ref=9 / deblock=1:-3:-3 / analyse=0x3:0x133 / me=tesa / subme=11 / psy=1 / psy_rd=1.08:0.10 / mixed_ref=1 / me_range=32 / chroma_me=1 / trellis=2 / 8x8dct=1 / cqm=0 / deadzone=21,11 / fast_pskip=0 / chroma_qp_offset=-3 / threads=12 / lookahead_threads=2 / sliced_threads=0 / nr=0 / decimate=0 / interlaced=0 / bluray_compat=0 / constrained_intra=0 / bframes=8 / b_pyramid=2 / b_adapt=2 / b_bias=0 / direct=3 / weightb=1 / open_gop=0 / weightp=2 / keyint=240 / keyint_min=23 / scenecut=40 / intra_refresh=0 / rc=2pass / mbtree=0 / bitrate=5973 / ratetol=1.0 / qcomp=0.60 / qpmin=0 / qpmax=69 / qpstep=4 / cplxblur=20.0 / qblur=0.5 / ip_ratio=1.40 / pb_ratio=1.30 / aq=1:1.00
Language : English
Default : Yes
Forced : No
Audio #1
ID : 2
Format : AC-3
Format/Info : Audio Coding 3
Mode extension : CM (complete main)
Format settings, Endianness : Big
Codec ID : A_AC3
Duration : 2h 0mn
Bit rate mode : Constant
Bit rate : 384 Kbps
Channel(s) : 6 channels
Channel positions : Front: L C R, Side: L R, LFE
Sampling rate : 48.0 KHz
Bit depth : 16 bits
Compression mode : Lossy
Stream size : 331 MiB (4%)
Title : Многоголосый, Liga HQ
Language : Russian
Default : Yes
Forced : No
Audio #2
ID : 3
Format : AC-3
Format/Info : Audio Coding 3
Mode extension : CM (complete main)
Format settings, Endianness : Big
Codec ID : A_AC3
Duration : 2h 0mn
Bit rate mode : Constant
Bit rate : 448 Kbps
Channel(s) : 6 channels
Channel positions : Front: L C R, Side: L R, LFE
Sampling rate : 48.0 KHz
Bit depth : 16 bits
Compression mode : Lossy
Stream size : 386 MiB (5%)
Title : Двухголосый, Twister / Paradise
Language : Russian
Default : No
Forced : No
Audio #3
ID : 4
Format : AC-3
Format/Info : Audio Coding 3
Mode extension : CM (complete main)
Format settings, Endianness : Big
Codec ID : A_AC3
Duration : 2h 0mn
Bit rate mode : Constant
Bit rate : 448 Kbps
Channel(s) : 6 channels
Channel positions : Front: L C R, Side: L R, LFE
Sampling rate : 48.0 KHz
Bit depth : 16 bits
Compression mode : Lossy
Stream size : 386 MiB (5%)
Title : Многоголосый, LDV
Language : Russian
Default : No
Forced : No
Audio #4
ID : 5
Format : AC-3
Format/Info : Audio Coding 3
Mode extension : CM (complete main)
Format settings, Endianness : Big
Codec ID : A_AC3
Duration : 2h 0mn
Bit rate mode : Constant
Bit rate : 192 Kbps
Channel(s) : 2 channels
Channel positions : Front: L R
Sampling rate : 48.0 KHz
Bit depth : 16 bits
Compression mode : Lossy
Stream size : 165 MiB (2%)
Title : Двухголосый, НТВ+
Default : No
Forced : No
Audio #5
ID : 6
Format : AC-3
Format/Info : Audio Coding 3
Mode extension : CM (complete main)
Format settings, Endianness : Big
Codec ID : A_AC3
Duration : 2h 0mn
Bit rate mode : Constant
Bit rate : 448 Kbps
Channel(s) : 6 channels
Channel positions : Front: L C R, Side: L R, LFE
Sampling rate : 48.0 KHz
Bit depth : 16 bits
Compression mode : Lossy
Stream size : 386 MiB (5%)
Title : Авторский, Ю. Сербин
Language : Russian
Default : No
Forced : No
Audio #6
ID : 7
Format : AC-3
Format/Info : Audio Coding 3
Mode extension : CM (complete main)
Format settings, Endianness : Big
Codec ID : A_AC3
Duration : 2h 0mn
Bit rate mode : Constant
Bit rate : 448 Kbps
Channel(s) : 6 channels
Channel positions : Front: L C R, Side: L R, LFE
Sampling rate : 48.0 KHz
Bit depth : 16 bits
Compression mode : Lossy
Stream size : 386 MiB (5%)
Title : Авторский, С. Визгунов
Language : Russian
Default : No
Forced : No
Audio #7
ID : 8
Format : AC-3
Format/Info : Audio Coding 3
Mode extension : CM (complete main)
Format settings, Endianness : Big
Codec ID : A_AC3
Duration : 2h 0mn
Bit rate mode : Constant
Bit rate : 448 Kbps
Channel(s) : 6 channels
Channel positions : Front: L C R, Side: L R, LFE
Sampling rate : 48.0 KHz
Bit depth : 16 bits
Compression mode : Lossy
Stream size : 386 MiB (5%)
Title : Авторский, Ю. Живов
Language : Russian
Default : No
Forced : No
Audio #8
ID : 9
Format : AC-3
Format/Info : Audio Coding 3
Mode extension : CM (complete main)
Format settings, Endianness : Big
Codec ID : A_AC3
Duration : 2h 0mn
Bit rate mode : Constant
Bit rate : 448 Kbps
Channel(s) : 6 channels
Channel positions : Front: L C R, Side: L R, LFE
Sampling rate : 48.0 KHz
Bit depth : 16 bits
Compression mode : Lossy
Stream size : 386 MiB (5%)
Title : Оригинал, Английский
Language : English
Default : No
Forced : No
Text #1
ID : 10
Format : UTF-8
Codec ID : S_TEXT/UTF8
Codec ID/Info : UTF-8 Plain Text
Language : Russian
Default : No
Forced : No
Text #2
ID : 11
Format : UTF-8
Codec ID : S_TEXT/UTF8
Codec ID/Info : UTF-8 Plain Text
Language : English
Default : No
Forced : No
Menu
00:00:00.000 : en:Main Titles
00:02:09.400 : en:I Didn't Arrive By Train
00:09:19.309 : en:Why Did You Come to This Planet?
00:18:13.342 : en:A Painful Procedure
00:23:34.121 : en:A Lot Like Home
00:36:19.884 : en:Twin Solar System
00:43:24.811 : en:Blue Bird
00:47:16.625 : en:Planning to Return
00:52:23.724 : en:The Fourth of July
00:59:38.377 : en:The Sprinklers
01:07:00.892 : en:Hypnosis
01:14:32.102 : en:Sarah
01:22:39.705 : en:27Th July 1996
01:27:34.958 : en:Robert Porter
01:37:22.503 : en:Connected
01:47:14.887 : en:A Beam of Light
01:51:33.020 : en:This Time Is All You Have
01:55:17.994 : en:End Titles
01:59:14.689 : en:The End
Скриншоты:

e-Commerce Partners Network
[fast-picture.ru].t416.torrent 
Торрент: Зарегистрирован   [ 2015-05-24 02:04 ] · 45433F88EC43B430510F4EE84C14CA547934A4A7

Скачать .torrent

Скачать

20 KB

Статус: проверено
Скачан: 1 раз
Размер: 7,77 GB
Правила
Последние поблагодарившие...



Показать сообщения:    

Текущее время: 09-Дек 17:17

Часовой пояс: UTC ± 0


Вы не можете начинать темы
Вы не можете отвечать на сообщения
Вы не можете редактировать свои сообщения
Вы не можете удалять свои сообщения
Вы не можете голосовать в опросах
Вы не можете прикреплять файлы к сообщениям
Вы можете скачивать файлы

Сайт не предоставляет электронные версии произведений, а занимается лишь коллекционированием и каталогизацией ссылок, присылаемых и публикуемых на форуме нашими читателями. Если вы являетесь правообладателем какого-либо представленного материала и не желаете, чтобы ссылка на него находилась в нашем каталоге, свяжитесь с нами, и мы незамедлительно удалим ее. Файлы для обмена на трекере предоставлены пользователями сайта, и администрация не несет ответственности за их содержание. Просьба не заливать файлы, защищенные авторскими правами, а также файлы нелегального содержания!