e-Commerce Partners Network




Статистика раздачи
Размер:  3,53 GB   |    Зарегистрирован:  1 год 6 месяцев   |    Скачан:  0 раз

Полного источника не было: Никогда

 
   
 
 

[Цитировать]


Информация о фильме:
Название: Фокус
Оригинальное название: Focus
Год выхода: 2015
Жанр: драма, мелодрама, комедия, криминал
Режиссер: Гленн Фикарра / Glenn Ficarra, Джон Рекуа / John Requa
В ролях: Уилл Смит, Марго Робби, Адриан Мартинес, Джералд МакРэйни, Родриго Санторо, Б.Д. Вонг, Бреннан Браун, Роберт Тейлор, Дотан Бонен, Грифф Ферст
О фильме: Эта история расскажет нам об очень опытном человеке в своем деле. Он является настоящим мошенником. Но, который однажды, влюбился в одну девушку. Она тоже в какой-то степени мошенница, но только начинающая. Ведь она только учится отнимать потихоньку деньги у людей. И, вроде бы ничто не мешает завести им романтические отношения и быть вместе. Но вскоре они понимают, что эта романтика создает одни только помехи. Ведь у обоих более, чем нечестный бизнес, который они навряд ли захотят забросить, даже ради самых чистых чувств…
Выпущено: США, Аргентина ‖ Kramer & Sigman Films, RatPac-Dune Entertainment, Zaftig Films
Продолжительность: 01:44:44
Перевод: Профессиональный (полное дублирование) iTunes
Оригинальная аудиодорожка: английская
Субтитры: русские (полные, форсированные), украинские (форсированные), английские (полные, SDH, SDH цветные)
Главы: присутствуют, сохранены оригинальные
Файл:
Формат: MKV
Качество: BDRip-AVC (источник: / Blu-ray Remux [FOCUS_REMUX_HDCLUB] / 1080p)
Видео: 1152x648 (16:9), 23.976 fps, MPEG-4 AVC, ~3800 kbps avg, 0.212 bit/pixel
Аудио #1: 48 kHz, AC3 Dolby Digital, 3/2 (L,C,R,l,r) + LFE ch, ~384 kbps avg (DUB)
Аудио #2: 48 kHz, AC3 Dolby Digital, 2/0 (L,R) ch, ~192 kbps avg (UKR)
Аудио #3: 48 kHz, AC3 Dolby Digital, 3/2 (L,C,R,l,r) + LFE ch, ~448 kbps avg (ENG)
Размер: 3.53 GB
Сэмпл: скачать
MediaInfo
Уникальный идентификатор : 173897418986056438955231607725709144211 (0x82D36CB5B604AB80806169A379ED3093)
Полное имя : Focus.2015.TRIPLE.BDRip-AVC.x264.mkv
Формат : Matroska
Версия формата : Version 2
Размер файла : 3,53 Гбайт
Продолжительность : 1 ч. 44 м.
Общий поток : 4822 Кбит/сек
Название фильма : Фокус / Focus (2015) BDRip-AVC by [Elheym]
Дата кодирования : UTC 2015-05-23 11:06:12
Программа кодирования : mkvmerge v5.2.0 ('I can't explain') built on Dec 18 2011 18:12:03
Библиотека кодирования : libebml v1.2.3 + libmatroska v1.3.0
Attachements : Cover.jpg
Видео
Идентификатор : 1
Формат : AVC
Формат/Информация : Advanced Video Codec
Профиль формата : High@L4.0
Параметр CABAC формата : Да
Параметр ReFrames формата : 10 кадров
Идентификатор кодека : V_MPEG4/ISO/AVC
Продолжительность : 1 ч. 44 м.
Битрейт : 3800 Кбит/сек
Ширина : 1152 пикселя
Высота : 648 пикселей
Соотношение сторон : 16:9
Режим частоты кадров : Постоянный
Частота кадров : 23,976 кадра/сек
Цветовое пространство : YUV
Субдискретизация насыщенности : 4:2:0
Битовая глубина : 8 бит
Тип развёртки : Прогрессивная
Бит/(Пиксели*Кадры) : 0.212
Размер потока : 2,71 Гбайт (77%)
Заголовок : Фокус / Focus (2015) BDRip-AVC by [Elheym]
Библиотека кодирования : x264 core 146 r0+2586 e393126 t_mod_Custom [8-bit@all X86_64]
Настройки программы : cabac=1 / ref=10 / deblock=1:-2:-2 / analyse=0x3:0x113 / me=umh / subme=11 / psy=1 / fade_compensate=0.00 / psy_rd=1.00:0.13 / mixed_ref=1 / me_range=32 / chroma_me=1 / trellis=2 / 8x8dct=1 / cqm=0 / deadzone=21,11 / fast_pskip=0 / chroma_qp_offset=-3 / threads=6 / lookahead_threads=2 / sliced_threads=0 / nr=0 / decimate=0 / interlaced=0 / bluray_compat=0 / constrained_intra=0 / fgo=0 / bframes=10 / b_pyramid=2 / b_adapt=2 / b_bias=0 / direct=3 / weightb=1 / open_gop=0 / weightp=2 / keyint=230 / keyint_min=23 / scenecut=40 / intra_refresh=0 / rc_lookahead=80 / rc=2pass / mbtree=0 / bitrate=3800 / ratetol=1.0 / qcomp=0.80 / qpmin=0:0:0 / qpmax=69:69:69 / qpstep=4 / cplxblur=20.0 / qblur=0.5 / vbv_maxrate=20000 / vbv_bufsize=25000 / nal_hrd=none / filler=0 / ip_ratio=1.40 / pb_ratio=1.30 / aq=2:0.50 / aq-sensitivity=10.00 / aq-factor=1.00:1.00:1.00 / aq2=0 / aq3=0 / zones=144270,150668,b=0.2
Язык : English
Default : Да
Forced : Нет
Аудио #1
Идентификатор : 2
Формат : AC-3
Формат/Информация : Audio Coding 3
Расширение режима : CM (complete main)
Параметр Endianness формата : Big
Идентификатор кодека : A_AC3
Продолжительность : 1 ч. 44 м.
Вид битрейта : Постоянный
Битрейт : 384 Кбит/сек
Каналы : 6 каналов
Расположение каналов : Front: L C R, Side: L R, LFE
Частота : 48,0 КГц
Битовая глубина : 16 бит
Метод сжатия : С потерями
Размер потока : 288 Мбайт (8%)
Заголовок : АС3 5.1 @ 384 kbps - Dub, iTunes Russia
Язык : Russian
Default : Нет
Forced : Нет
Аудио #2
Идентификатор : 3
Формат : AC-3
Формат/Информация : Audio Coding 3
Расширение режима : CM (complete main)
Параметр Endianness формата : Big
Идентификатор кодека : A_AC3
Продолжительность : 1 ч. 44 м.
Вид битрейта : Постоянный
Битрейт : 192 Кбит/сек
Каналы : 2 канала
Расположение каналов : Front: L R
Частота : 48,0 КГц
Битовая глубина : 16 бит
Метод сжатия : С потерями
Размер потока : 144 Мбайт (4%)
Заголовок : АС3 2.0 @ 192 kbps - Dub, iTunes Russia
Язык : Ukrainian
Default : Нет
Forced : Нет
Аудио #3
Идентификатор : 4
Формат : AC-3
Формат/Информация : Audio Coding 3
Расширение режима : CM (complete main)
Параметр Endianness формата : Big
Идентификатор кодека : A_AC3
Продолжительность : 1 ч. 44 м.
Вид битрейта : Постоянный
Битрейт : 448 Кбит/сек
Каналы : 6 каналов
Расположение каналов : Front: L C R, Side: L R, LFE
Частота : 48,0 КГц
Битовая глубина : 16 бит
Метод сжатия : С потерями
Размер потока : 336 Мбайт (9%)
Заголовок : АС3 5.1 @ 448 kbps - Original
Язык : English
Default : Нет
Forced : Нет
Текст #1
Идентификатор : 5
Формат : UTF-8
Идентификатор кодека : S_TEXT/UTF8
Идентификатор кодека/Информация : UTF-8 Plain Text
Заголовок : Full
Язык : Russian
Default : Нет
Forced : Нет
Текст #2
Идентификатор : 6
Формат : UTF-8
Идентификатор кодека : S_TEXT/UTF8
Идентификатор кодека/Информация : UTF-8 Plain Text
Заголовок : Forced
Язык : Russian
Default : Нет
Forced : Нет
Текст #3
Идентификатор : 7
Формат : UTF-8
Идентификатор кодека : S_TEXT/UTF8
Идентификатор кодека/Информация : UTF-8 Plain Text
Заголовок : Forced
Язык : Ukrainian
Default : Нет
Forced : Нет
Текст #4
Идентификатор : 8
Формат : UTF-8
Идентификатор кодека : S_TEXT/UTF8
Идентификатор кодека/Информация : UTF-8 Plain Text
Заголовок : Full
Язык : English
Default : Нет
Forced : Нет
Текст #5
Идентификатор : 9
Формат : UTF-8
Идентификатор кодека : S_TEXT/UTF8
Идентификатор кодека/Информация : UTF-8 Plain Text
Заголовок : Full SDH
Язык : English
Default : Нет
Forced : Нет
Текст #6
Идентификатор : 10
Формат : UTF-8
Идентификатор кодека : S_TEXT/UTF8
Идентификатор кодека/Информация : UTF-8 Plain Text
Заголовок : Full SDH Colored
Язык : English
Default : Нет
Forced : Нет
Меню
00:00:00.000 : :Chapter 01
00:09:17.974 : :Chapter 02
00:18:55.217 : :Chapter 03
00:30:22.903 : :Chapter 04
00:40:56.077 : :Chapter 05
00:49:16.368 : :Chapter 06
01:00:10.481 : :Chapter 07
01:11:02.756 : :Chapter 08
01:20:27.488 : :Chapter 09
01:28:33.890 : :Chapter 10
01:39:19.619 : :Chapter 11
01:44:43.902 : :Chapter 12
x264 log
x264 [info]: frame I:1457 Avg QP:15.41 size:125438
x264 [info]: frame P:35793 Avg QP:19.13 size: 39964
x264 [info]: frame B:113419 Avg QP:20.45 size: 12058
x264 [info]: consecutive B-frames: 3.5% 3.7% 5.9% 35.9% 12.7% 24.5% 5.9% 6.6% 0.9% 0.3% 0.3%
x264 [info]: ref P L0: 47.9% 8.9% 18.8% 6.1% 5.6% 3.7% 3.5% 1.8% 1.9% 1.6% 0.3% 0.0%
x264 [info]: ref B L0: 78.2% 11.0% 4.3% 2.2% 1.4% 1.3% 0.9% 0.4% 0.2%
x264 [info]: ref B L1: 94.3% 5.7%
Скриншоты:
Релиз от -

e-Commerce Partners Network
[fast-picture.ru].t417.torrent 
Торрент: Зарегистрирован   [ 2015-05-24 02:11 ] · 9943A1B01B6C0DB7A5421EF43EC40392CFC48969

Скачать .torrent

Скачать

19 KB

Статус: проверено
Скачан: 0 раз
Размер: 3,53 GB
Правила
Последние поблагодарившие...



Показать сообщения:    

Текущее время: 02-Дек 18:01

Часовой пояс: UTC ± 0


Вы не можете начинать темы
Вы не можете отвечать на сообщения
Вы не можете редактировать свои сообщения
Вы не можете удалять свои сообщения
Вы не можете голосовать в опросах
Вы не можете прикреплять файлы к сообщениям
Вы можете скачивать файлы

Сайт не предоставляет электронные версии произведений, а занимается лишь коллекционированием и каталогизацией ссылок, присылаемых и публикуемых на форуме нашими читателями. Если вы являетесь правообладателем какого-либо представленного материала и не желаете, чтобы ссылка на него находилась в нашем каталоге, свяжитесь с нами, и мы незамедлительно удалим ее. Файлы для обмена на трекере предоставлены пользователями сайта, и администрация не несет ответственности за их содержание. Просьба не заливать файлы, защищенные авторскими правами, а также файлы нелегального содержания!