e-Commerce Partners Network




Статистика раздачи
Размер:  9,66 GB   |    Зарегистрирован:  1 год 6 месяцев   |    Скачан:  0 раз

Полного источника не было: Никогда

 
   
 
 

[Цитировать]

Информация о фильме
Название: Призрачный мир
Оригинальное название: Ghost World
Год выпуска: 2001
Жанр: Комедия, драма
Режиссер: Терри Цвигофф
В ролях: Тора Бёрч, Скарлетт Йоханссон, Стив Бушеми, Брэд Ренфро, Иллеана Дуглас, Боб Бэлабан, Стэйси Трэвис, Чарльз С. Стивенсон мл., Дейв Шеридан, Том МакГоуэн, Дебра Азар, Брайан Джордж, Пэт Хили, Рини Белл, Ти-Джей Тайн, Эзра Баззингтон, Линдси Жирардо, Джой Биско, Венус ДеМило, Эшли Пелдон, Чачи Питтман, Джэнес Джордан, Кэйли Бриэль Мартин, Александр Форс, Марк Вэнн, Джеймс Си, Пол Кит, Дэвид Кросс, Дж.Дж. Бэд Бой Джонс, Дилан Джонс, Мартин Грэй, Стив Пирсон, Джэйк Ла Ботц, Джонни Айрион, Нат Вуд, Чарльз Шнайдер, Сид Хиллман, Джошуа Вилер, Патрик Фишлер, Дэниэл Грейвз
Описание: В то самое время, когда все воспитанные выпускники из средней школы направились учиться в колледж, Ребекка и Энид, героини этого фильма, решили, что не стоит учится дальше, потому что это является скукой смертной. А также, таким образом можно просто потерять время и больше ничего. Они решили не тратить время на такую ерунду и отдохнуть для себя. Посмотреть, что творится вокруг.. И поговорить о других несовершенных людях, не способных отдыхать…

Выпущено: США, Великобритания, Германия / Advanced Medien, Capitol Films, Granada Film Productions, Jersey Shore, Mr. Mudd, United Artists
Продолжительность: 01:51:27
Перевод: Профессиональный двухголосый, авторский
Файл
Качество: BDRip 1080p
Видео: MPEG-4 AVC, 10 Mбит/с, 1914x1040, 23.976 кадр/с
Аудио #1: Русский (AC3, 6 ch, 448 Кбит/с) / Профессиональный двухголосый
Аудио #2: Русский (AC3, 6 ch, 448 Кбит/с) / Авторский одноголосый (Визгунов)
Аудио #3: Английский (DTS, 6 ch, 1509 Кбит/с)
Субтитры: Русские, английские
Семпл
Скриншоты
О релизе
За исходник спасибо: HDTrecker
MI
x264 [info]: frame I:1202 Avg QP:17.15 size:205296
x264 [info]: frame P:30557 Avg QP:19.37 size: 82383
x264 [info]: frame B:128574 Avg QP:21.58 size: 43501
**************************************************************
Общее
Уникальный идентификатор : 233241105157446556476995086222408062669 (0xAF789A559689C8F6A6A01BD76EF496CD)
Полное имя : D:Mои раздачиPrizrachnyi.mir.2001.BDRip.1080p-MediaClub.mkv
Формат : Matroska
Версия формата : Version 4 / Version 2
Размер файла : 9,66 Гбайт
Продолжительность : 1 ч. 51 м.
Общий поток : 12,4 Мбит/сек
Название фильма : -=MediaClub-kaspr=-
Дата кодирования : UTC 2014-05-24 06:12:44
Программа кодирования : mkvmerge v6.9.1 ('Blue Panther') 64bit built on Apr 18 2014 18:23:38
Библиотека кодирования : libebml v1.3.0 + libmatroska v1.4.1
Видео
Идентификатор : 1
Формат : AVC
Формат/Информация : Advanced Video Codec
Профиль формата : High@L4.1
Параметр CABAC формата : Да
Параметр ReFrames формата : 4 кадра
Идентификатор кодека : V_MPEG4/ISO/AVC
Продолжительность : 1 ч. 51 м.
Битрейт : 10000 Кбит/сек
Ширина : 1914 пикселей
Высота : 1040 пикселей
Соотношение сторон : 1,85:1
Режим частоты кадров : Постоянный
Частота кадров : 23,976 кадра/сек
Цветовое пространство : YUV
Субдискретизация насыщенности : 4:2:0
Битовая глубина : 8 бит
Тип развёртки : Прогрессивная
Бит/(Пиксели*Кадры) : 0.210
Размер потока : 7,59 Гбайт (79%)
Заголовок : -=MediaClub-kaspr=-
Библиотека кодирования : x264 core 142 r2431+42 c69a006 tMod [8-bit@4:2:0 X86_64]
Настройки программы : cabac=1 / ref=4 / deblock=1:-3:-3 / analyse=0x3:0x113 / me=umh / subme=11 / psy=1 / fade_compensate=0.00 / psy_rd=1.00:0.20 / mixed_ref=1 / me_range=32 / chroma_me=1 / trellis=2 / 8x8dct=1 / cqm=0 / deadzone=21,11 / fast_pskip=0 / chroma_qp_offset=-3 / threads=12 / lookahead_threads=2 / sliced_threads=0 / nr=0 / decimate=0 / interlaced=0 / bluray_compat=0 / constrained_intra=0 / fgo=0 / bframes=8 / b_pyramid=2 / b_adapt=2 / b_bias=0 / direct=3 / weightb=1 / open_gop=0 / weightp=2 / keyint=240 / keyint_min=23 / scenecut=40 / intra_refresh=0 / rc=2pass / mbtree=0 / bitrate=10000 / ratetol=1.0 / qcomp=0.60 / qpmin=0:0:0 / qpmax=69:69:69 / qpstep=4 / cplxblur=20.0 / qblur=0.5 / ip_ratio=1.40 / pb_ratio=1.30 / aq=4:0.80 / aq-sensitivity=10.00 / aq-factor=1.00:1.00:1.00 / aq2=0 / aq3=0
Default : Да
Forced : Да
Аудио #1
Идентификатор : 2
Формат : AC-3
Формат/Информация : Audio Coding 3
Расширение режима : CM (complete main)
Параметр Endianness формата : Big
Идентификатор кодека : A_AC3
Продолжительность : 1 ч. 51 м.
Вид битрейта : Постоянный
Битрейт : 448 Кбит/сек
Каналы : 6 каналов
Расположение каналов : Front: L C R, Side: L R, LFE
Частота : 48,0 КГц
Битовая глубина : 16 бит
Метод сжатия : С потерями
Размер потока : 357 Мбайт (4%)
Заголовок : DVO
Язык : Russian
Default : Да
Forced : Да
Аудио #2
Идентификатор : 3
Формат : AC-3
Формат/Информация : Audio Coding 3
Расширение режима : CM (complete main)
Параметр Endianness формата : Big
Идентификатор кодека : A_AC3
Продолжительность : 1 ч. 51 м.
Вид битрейта : Постоянный
Битрейт : 448 Кбит/сек
Каналы : 6 каналов
Расположение каналов : Front: L C R, Side: L R, LFE
Частота : 48,0 КГц
Битовая глубина : 16 бит
Метод сжатия : С потерями
Размер потока : 357 Мбайт (4%)
Заголовок : Визгунов
Язык : Russian
Default : Нет
Forced : Нет
Аудио #3
Идентификатор : 4
Формат : DTS
Формат/Информация : Digital Theater Systems
Режим : 16
Параметр Endianness формата : Big
Идентификатор кодека : A_DTS
Продолжительность : 1 ч. 51 м.
Вид битрейта : Постоянный
Битрейт : 1509 Кбит/сек
Каналы : 6 каналов
Расположение каналов : Front: L C R, Side: L R, LFE
Частота : 48,0 КГц
Битовая глубина : 16 бит
Метод сжатия : С потерями
Размер потока : 1,17 Гбайт (12%)
Язык : English
Default : Нет
Forced : Нет
Текст #1
Идентификатор : 5
Формат : UTF-8
Идентификатор кодека : S_TEXT/UTF8
Идентификатор кодека/Информация : UTF-8 Plain Text
Язык : Russian
Default : Нет
Forced : Нет
Текст #2
Идентификатор : 6
Формат : UTF-8
Идентификатор кодека : S_TEXT/UTF8
Идентификатор кодека/Информация : UTF-8 Plain Text
Язык : English
Default : Нет
Forced : Нет
Релиз: |

e-Commerce Partners Network
[fast-picture.ru].t432.torrent 
Торрент: Зарегистрирован   [ 2015-05-25 01:57 ] · BA6C35F99168BE97F86DE734A8C54192C72EE9E3

Скачать .torrent

Скачать

25 KB

Статус: проверено
Скачан: 0 раз
Размер: 9,66 GB
Правила
Последние поблагодарившие...



Показать сообщения:    

Текущее время: 03-Дек 23:56

Часовой пояс: UTC ± 0


Вы не можете начинать темы
Вы не можете отвечать на сообщения
Вы не можете редактировать свои сообщения
Вы не можете удалять свои сообщения
Вы не можете голосовать в опросах
Вы не можете прикреплять файлы к сообщениям
Вы можете скачивать файлы

Сайт не предоставляет электронные версии произведений, а занимается лишь коллекционированием и каталогизацией ссылок, присылаемых и публикуемых на форуме нашими читателями. Если вы являетесь правообладателем какого-либо представленного материала и не желаете, чтобы ссылка на него находилась в нашем каталоге, свяжитесь с нами, и мы незамедлительно удалим ее. Файлы для обмена на трекере предоставлены пользователями сайта, и администрация не несет ответственности за их содержание. Просьба не заливать файлы, защищенные авторскими правами, а также файлы нелегального содержания!