e-Commerce Partners Network




Статистика раздачи
Размер:  4,87 GB   |    Зарегистрирован:  1 год 6 месяцев   |    Скачан:  0 раз

Полного источника не было: Никогда

 
   
 
 

[Цитировать]

Информация о фильме
Название: Все еще Элис
Оригинальное название: Still Alice
Год выхода: 2014
Жанр: Драма
Режиссер: Ричард Глацер, Уош Уэстмоленд
В ролях: Джулианна Мур, Алек Болдуин, Кристен Стюарт, Кейт Босворт, Хантер Пэрриш, Виктория Картагена, Эрин Майя Дарк, Шэйн МакРей, Стефан Канкен, Эха Урбсалу
О фильме: Элис Хаулэнд — известный профессор лингвистики. Она счастлива в браке, у нее трое взрослых детей. Но все меняется, когда однажды она начинает забывать слова…

Выпущено: США / Backup Media, Big Indie Pictures, BSM Studio
Продолжительность: 01:41:14
Перевод: Профессиональное многоголосное, авторский
Файл
Формат: MKV
Качество: BDRip 720p
Видео: MPEG-4 AVC, 4666 Кбит/с, 1280x688
Аудио #1: Русский (AC3, 6 ch, 384 Кбит/с) Многоголосное (Лицензия)
Аудио #2: Русский (AC3, 6 ch, 384 Кбит/с) Авторский (В. Котов)
Аудио #3: Английский (DTS, 6 ch, 1510 Кбит/с) Оригинал
Субтитры: Русский, английский
Семпл
MI:
Общее
Уникальный идентификатор : 254777103525403070016590648217270694764 (0xBFAC490844250EE4A177CA37EAA3336C)
Полное имя : F:Раздача HDVse.Esche.Elis.2014.A1.BDRip.720p.mkv
Формат : Matroska
Версия формата : Version 2
Размер файла : 4,87 Гбайт
Продолжительность : 1 ч. 41 м.
Общий поток : 6880 Кбит/сек
Название фильма : Still Alice (2014)
Дата кодирования : UTC 2015-05-25 23:15:07
Программа кодирования : mkvmerge v5.8.0 ('No Sleep / Pillow') built on Sep 2 2012 15:37:04
Библиотека кодирования : libebml v1.2.3 + libmatroska v1.3.0
Обложка : Yes
Видео
Идентификатор : 1
Формат : AVC
Формат/Информация : Advanced Video Codec
Профиль формата : High@L4.1
Параметр CABAC формата : Да
Параметр ReFrames формата : 5 кадров
Идентификатор кодека : V_MPEG4/ISO/AVC
Продолжительность : 1 ч. 41 м.
Битрейт : 4666 Кбит/сек
Ширина : 1280 пикселей
Высота : 688 пикселей
Соотношение сторон : 1,85:1
Режим частоты кадров : Постоянный
Частота кадров : 23,976 кадра/сек
Цветовое пространство : YUV
Субдискретизация насыщенности : 4:2:0
Битовая глубина : 8 бит
Тип развёртки : Прогрессивная
Бит/(Пиксели*Кадры) : 0.221
Размер потока : 3,20 Гбайт (66%)
Библиотека кодирования : x264 core 144 r2525 40bb568
Настройки программы : cabac=1 / ref=5 / deblock=1:0:0 / analyse=0x3:0x133 / me=umh / subme=7 / psy=1 / psy_rd=1.00:0.00 / mixed_ref=1 / me_range=16 / chroma_me=1 / trellis=1 / 8x8dct=1 / cqm=0 / deadzone=21,11 / fast_pskip=0 / chroma_qp_offset=-2 / threads=18 / lookahead_threads=3 / sliced_threads=0 / nr=0 / decimate=1 / interlaced=0 / bluray_compat=0 / constrained_intra=0 / bframes=3 / b_pyramid=2 / b_adapt=1 / b_bias=0 / direct=1 / weightb=1 / open_gop=0 / weightp=2 / keyint=250 / keyint_min=23 / scenecut=40 / intra_refresh=0 / rc_lookahead=40 / rc=2pass / mbtree=1 / bitrate=4666 / ratetol=1.0 / qcomp=0.60 / qpmin=0 / qpmax=69 / qpstep=4 / cplxblur=20.0 / qblur=0.5 / ip_ratio=1.40 / aq=1:1.00
Язык : English
Default : Да
Forced : Нет
Аудио #1
Идентификатор : 2
Формат : AC-3
Формат/Информация : Audio Coding 3
Расширение режима : CM (complete main)
Параметр Endianness формата : Big
Идентификатор кодека : A_AC3
Продолжительность : 1 ч. 41 м.
Вид битрейта : Постоянный
Битрейт : 384 Кбит/сек
Каналы : 6 каналов
Расположение каналов : Front: L C R, Side: L R, LFE
Частота : 48,0 КГц
Битовая глубина : 16 бит
Метод сжатия : С потерями
Размер потока : 278 Мбайт (6%)
Заголовок : MVO (Лицензия)
Язык : Russian
Default : Нет
Forced : Нет
Аудио #2
Идентификатор : 3
Формат : AC-3
Формат/Информация : Audio Coding 3
Расширение режима : CM (complete main)
Параметр Endianness формата : Big
Идентификатор кодека : A_AC3
Продолжительность : 1 ч. 41 м.
Вид битрейта : Постоянный
Битрейт : 320 Кбит/сек
Каналы : 6 каналов
Расположение каналов : Front: L C R, Side: L R, LFE
Частота : 48,0 КГц
Битовая глубина : 16 бит
Метод сжатия : С потерями
Задержка видео : 8 мс.
Размер потока : 232 Мбайт (5%)
Заголовок : AVO (Котов)
Язык : Russian
Default : Нет
Forced : Нет
Аудио #3
Идентификатор : 4
Формат : DTS
Формат/Информация : Digital Theater Systems
Режим : 16
Параметр Endianness формата : Big
Идентификатор кодека : A_DTS
Продолжительность : 1 ч. 41 м.
Вид битрейта : Постоянный
Битрейт : 1509 Кбит/сек
Каналы : 6 каналов
Расположение каналов : Front: L C R, Side: L R, LFE
Частота : 48,0 КГц
Битовая глубина : 24 бит
Метод сжатия : С потерями
Размер потока : 1,07 Гбайт (22%)
Заголовок : Original
Язык : English
Default : Нет
Forced : Нет
Текст #1
Идентификатор : 5
Формат : UTF-8
Идентификатор кодека : S_TEXT/UTF8
Идентификатор кодека/Информация : UTF-8 Plain Text
Язык : Russian
Default : Нет
Forced : Нет
Текст #2
Идентификатор : 6
Формат : UTF-8
Идентификатор кодека : S_TEXT/UTF8
Идентификатор кодека/Информация : UTF-8 Plain Text
Язык : English
Default : Нет
Forced : Нет
Меню
00:00:00.000 : en:00:00:00.000
00:04:40.697 : en:00:04:40.697
00:11:03.246 : en:00:11:03.246
00:15:37.895 : en:00:15:37.895
00:21:34.668 : en:00:21:34.668
00:28:51.063 : en:00:28:51.063
00:36:54.546 : en:00:36:54.546
00:43:54.841 : en:00:43:54.841
00:49:39.518 : en:00:49:39.518
00:58:20.247 : en:00:58:20.247
01:05:08.863 : en:01:05:08.863
01:11:36.000 : en:01:11:36.000
01:16:38.886 : en:01:16:38.886
01:20:02.172 : en:01:20:02.172
01:27:08.849 : en:01:27:08.849
01:30:08.945 : en:01:30:08.945
Награды:
Оскар, 2015 год
Победитель (1):
Лучшая женская роль (Джулианна Мур)
Золотой глобус, 2015 год
Победитель (1):
Лучшая женская роль (драма) (Джулианна Мур)
Британская академия, 2015 год
Победитель (1):
Лучшая женская роль (Джулианна Мур)
Премия Гильдии актеров, 2015 год
Победитель (1):
Лучшая женская роль (Джулианна Мур)
Скриншоты

e-Commerce Partners Network
[fast-picture.ru].t452.torrent 
Торрент: Зарегистрирован   [ 2015-05-26 02:14 ] · C3F286B8763C7EC6DD9FA9EF98743F5EE77E7338

Скачать .torrent

Скачать

13 KB

Статус: проверено
Скачан: 0 раз
Размер: 4,87 GB
Правила
Последние поблагодарившие...



Показать сообщения:    

Текущее время: 11-Дек 07:59

Часовой пояс: UTC ± 0


Вы не можете начинать темы
Вы не можете отвечать на сообщения
Вы не можете редактировать свои сообщения
Вы не можете удалять свои сообщения
Вы не можете голосовать в опросах
Вы не можете прикреплять файлы к сообщениям
Вы можете скачивать файлы

Сайт не предоставляет электронные версии произведений, а занимается лишь коллекционированием и каталогизацией ссылок, присылаемых и публикуемых на форуме нашими читателями. Если вы являетесь правообладателем какого-либо представленного материала и не желаете, чтобы ссылка на него находилась в нашем каталоге, свяжитесь с нами, и мы незамедлительно удалим ее. Файлы для обмена на трекере предоставлены пользователями сайта, и администрация не несет ответственности за их содержание. Просьба не заливать файлы, защищенные авторскими правами, а также файлы нелегального содержания!