e-Commerce Partners Network




Статистика раздачи
Размер:  2,53 GB   |    Зарегистрирован:  1 год 6 месяцев   |    Скачан:  0 раз

Полного источника не было: Никогда

 
   
 
 

[Цитировать]

Информация о фильме
Название: Титан: После гибели Земли
Оригинальное название: Titan A.E.
Год выхода: 2000
Жанр: Мультфильм, фантастика, приключения, полнометражный
Режиссер: Арт Вителло, Дон Блут, Гари Голдман
В ролях: Мэтт Дэймон, Билл Пуллман, Джон Легуизамо, Нэйтан Лейн, Джанин Гарофало, Дрю Бэрримор, Рон Перлман, Алекс Д. Линц, Тоун Лок, Джим Брюэр, Кристофер Скарабосио, Джим Каммингс, Чарльз Роккет, Кен Хадсон Кэмпбелл, Тсаи Чин, Кристал Скейлс, Дэвид Л. Лэндер, Томас А. Чантлер, Илэйн А. Кларк, Рой Конрад, Лесли Хеджер, Роджер Л. Джексон, Шеннон, Алекс Пелс, Эрик Шнивинд, Стефен Стэнтон
О фильме: В 3028 году Дреджи — агрессивная инопланетная раса уничтожила Землю. Пятнадцать лет спустя — юный Кейл узнает, что он владеет генетически запрограммированной картой на Титан — космический супер-корабль, в котором заключен секрет спасения человечества. Кейлу предстоит полное опасностей путешествие через вселенную в составе команды космического корабля «Валькирия», сражения со злыми Дреджами, и восстановление Титана — последней надежды всего человечества...

Страна: США
Студия: 20th Century Fox Film Corporation, David Kirschner Productions, Fox Animation Studios
Продолжительность: 01:34:59
Перевод: Дублированный, профессиональный многоголосый, авторский одноголосый (Ю. Живов)
Файл
Кодек: MPEG-4 AVC
Качество: WEB-DLRip-AVC
Видео: 1775 Кбит/с, 1024x432
Звук: Русский (АС3, 6 ch, 384 Кбит/с), (АС3, 6 ch, 448 Кбит/с), английский (АС3, 6 ch, 448 Кбит/с)
Субтитры: Русские, английские
Релиз
Рип от StarbirS
Аудио#1: Russian: AC3, 48 kHz, AC3, 3/2 (L,C,R,l,r) + LFE ch, ~448.00 kbps avg - Дублированный (R5)
Аудио#2: Russian: AC3, 48 kHz, AC3, 3/2 (L,C,R,l,r) + LFE ch, ~384.00 kbps avg - Профессиональный многоголосый (#1)
Аудио#3: Russian: AC3, 48 kHz, AC3, 3/2 (L,C,R,l,r) + LFE ch, ~384.00 kbps avg - Профессиональный многоголосый (#2)
Аудио#4: Russian: AC3, 48 kHz, AC3, 3/2 (L,C,R,l,r) + LFE ch, ~384.00 kbps avg - Авторский одноголосый (Ю. Живов)
Аудио#5: English: AC3, 48 kHz, AC3, 3/2 (L,C,R,l,r) + LFE ch, ~448.00 kbps avg - Оригинал
Субтитры: Русские, английские
x264 [info]: frame I:1287 Avg QP:16.04 size: 57608
x264 [info]: frame P:37532 Avg QP:19.68 size: 18029
x264 [info]: frame B:97825 Avg QP:21.11 size: 5249
Инфо-файл
Формат : Matroska
Версия формата : Version 2
Размер файла : 2,53 Гбайт
Продолжительность : 1 ч. 34 м.
Общий поток : 3812 Кбит/сек
Название фильма : Titan A.E.2000.x264.WEB-DLRip.(AVC)
Дата кодирования : UTC 2015-05-24 17:03:27
Программа кодирования : mkvmerge v7.7.0 ('Six Voices') 64bit built on Feb 28 2015 23:39:33
Библиотека кодирования : libebml v1.3.1 + libmatroska v1.4.2
DURATION : 01:24:43.560000000
NUMBER_OF_FRAMES : 777
NUMBER_OF_BYTES : 28766
_STATISTICS_WRITING_APP : mkvmerge v7.4.0 ('Circles') 64bit built on Dec 12 2014 12:19:56
_STATISTICS_WRITING_DATE_UTC : 2015-05-23 15:26:18
_STATISTICS_TAGS : BPS DURATION NUMBER_OF_FRAMES NUMBER_OF_BYTES
Видео
Идентификатор : 1
Формат : AVC
Формат/Информация : Advanced Video Codec
Профиль формата : High@L4.1
Параметр CABAC формата : Да
Параметр ReFrames формата : 12 кадров
Идентификатор кодека : V_MPEG4/ISO/AVC
Продолжительность : 1 ч. 34 м.
Битрейт : 1688 Кбит/сек
Номинальный битрейт : 1775 Кбит/сек
Ширина : 1024 пикселя
Высота : 432 пикселя
Соотношение сторон : 2,40:1
Режим частоты кадров : Постоянный
Частота кадров : 23,976 кадра/сек
Цветовое пространство : YUV
Субдискретизация насыщенности : 4:2:0
Битовая глубина : 8 бит
Тип развёртки : Прогрессивная
Бит/(Пиксели*Кадры) : 0.159
Размер потока : 1,12 Гбайт (44%)
Заголовок : Titan A.E.2000.x264.WEB-DLRip.(AVC).by.StarbirS
Библиотека кодирования : x264 core 146 r2538 121396c
Настройки программы : cabac=1 / ref=12 / deblock=1:-3:-3 / analyse=0x3:0x113 / me=umh / subme=10 / psy=1 / psy_rd=1.05:0.15 / mixed_ref=1 / me_range=32 / chroma_me=1 / trellis=2 / 8x8dct=1 / cqm=0 / deadzone=21,11 / fast_pskip=0 / chroma_qp_offset=-3 / threads=12 / lookahead_threads=2 / sliced_threads=0 / nr=0 / decimate=0 / interlaced=0 / bluray_compat=0 / constrained_intra=0 / bframes=9 / b_pyramid=2 / b_adapt=2 / b_bias=0 / direct=3 / weightb=1 / open_gop=1 / weightp=2 / keyint=240 / keyint_min=23 / scenecut=40 / intra_refresh=0 / rc=2pass / mbtree=0 / bitrate=1775 / ratetol=1.0 / qcomp=0.65 / qpmin=0 / qpmax=69 / qpstep=4 / cplxblur=20.0 / qblur=0.5 / ip_ratio=1.40 / pb_ratio=1.30 / aq=3:0.90
Язык : English
Default : Да
Forced : Нет
Аудио #1
Идентификатор : 2
Формат : AC-3
Формат/Информация : Audio Coding 3
Расширение режима : CM (complete main)
Параметр Endianness формата : Big
Идентификатор кодека : A_AC3
Продолжительность : 1 ч. 34 м.
Вид битрейта : Постоянный
Битрейт : 448 Кбит/сек
Каналы : 6 каналов
Расположение каналов : Front: L C R, Side: L R, LFE
Частота : 48,0 КГц
Битовая глубина : 16 бит
Метод сжатия : С потерями
Размер потока : 304 Мбайт (12%)
Заголовок : Дублированный (R5)
Язык : Russian
Default : Да
Forced : Нет
Аудио #2
Идентификатор : 3
Формат : AC-3
Формат/Информация : Audio Coding 3
Расширение режима : CM (complete main)
Параметр Endianness формата : Big
Идентификатор кодека : A_AC3
Продолжительность : 1 ч. 34 м.
Вид битрейта : Постоянный
Битрейт : 384 Кбит/сек
Каналы : 6 каналов
Расположение каналов : Front: L C R, Side: L R, LFE
Частота : 48,0 КГц
Битовая глубина : 16 бит
Метод сжатия : С потерями
Размер потока : 261 Мбайт (10%)
Заголовок : Профессиональный многоголосый (#1)
Язык : Russian
Default : Нет
Forced : Нет
Аудио #3
Идентификатор : 4
Формат : AC-3
Формат/Информация : Audio Coding 3
Расширение режима : CM (complete main)
Параметр Endianness формата : Big
Идентификатор кодека : A_AC3
Продолжительность : 1 ч. 34 м.
Вид битрейта : Постоянный
Битрейт : 384 Кбит/сек
Каналы : 6 каналов
Расположение каналов : Front: L C R, Side: L R, LFE
Частота : 48,0 КГц
Битовая глубина : 16 бит
Метод сжатия : С потерями
Размер потока : 261 Мбайт (10%)
Заголовок : Профессиональный многоголосый (#2)
Язык : Russian
Default : Нет
Forced : Нет
Аудио #4
Идентификатор : 5
Формат : AC-3
Формат/Информация : Audio Coding 3
Расширение режима : CM (complete main)
Параметр Endianness формата : Big
Идентификатор кодека : A_AC3
Продолжительность : 1 ч. 34 м.
Вид битрейта : Постоянный
Битрейт : 384 Кбит/сек
Каналы : 6 каналов
Расположение каналов : Front: L C R, Side: L R, LFE
Частота : 48,0 КГц
Битовая глубина : 16 бит
Метод сжатия : С потерями
Размер потока : 261 Мбайт (10%)
Заголовок : Авторский одноголосый (Ю. Живов)
Язык : Russian
Default : Нет
Forced : Нет
Аудио #5
Идентификатор : 6
Формат : AC-3
Формат/Информация : Audio Coding 3
Расширение режима : CM (complete main)
Параметр Endianness формата : Big
Идентификатор кодека : A_AC3
Продолжительность : 1 ч. 34 м.
Вид битрейта : Постоянный
Битрейт : 448 Кбит/сек
Каналы : 6 каналов
Расположение каналов : Front: L C R, Side: L R, LFE
Частота : 48,0 КГц
Битовая глубина : 16 бит
Метод сжатия : С потерями
Размер потока : 304 Мбайт (12%)
Заголовок : Оригинал
Язык : English
Default : Нет
Forced : Нет
Текст #1
Идентификатор : 7
Формат : UTF-8
Идентификатор кодека : S_TEXT/UTF8
Идентификатор кодека/Информация : UTF-8 Plain Text
Заголовок : Forced
Язык : Russian
Default : Нет
Forced : Нет
Текст #2
Идентификатор : 8
Формат : UTF-8
Идентификатор кодека : S_TEXT/UTF8
Идентификатор кодека/Информация : UTF-8 Plain Text
Заголовок : Full
Язык : Russian
Default : Нет
Forced : Нет
Текст #3
Идентификатор : 9
Формат : UTF-8
Идентификатор кодека : S_TEXT/UTF8
Идентификатор кодека/Информация : UTF-8 Plain Text
Заголовок : Full
Язык : English
Default : Нет
Forced : Нет
Меню
00:00:00.000 : en:Prologue
00:01:51.744 : en:The Drej Attack
00:06:36.744 : en:15 Years Later
00:12:17.744 : en:A Human Recruiter
00:14:41.744 : en:A Father's Legacy
00:15:55.744 : en:Being Chased
00:20:52.744 : en:Being Healed
00:24:32.744 : en:Navigation
00:26:49.744 : en:Sesharrim
00:35:56.744 : en:Captured
00:40:37.744 : en:On A Trade Ship
00:43:04.744 : en:Breaking Free
00:52:09.744 : en:Unnatural Allies
00:56:34.744 : en:On New Bangkok
00:58:50.744 : en:A Ship
01:02:31.744 : en:In The Ice Ring
01:11:42.744 : en:A Message From Dad
01:15:05.744 : en:Fight For The Ring
01:22:11.744 : en:Building A Planet
01:26:41.744 : en:End Titles
Скриншоты

e-Commerce Partners Network
[fast-picture.ru].t456.torrent 
Торрент: Зарегистрирован   [ 2015-05-26 02:24 ] · E9EEB23B584FFFB9C7D9E4A6E78AAFF8F47E9EC3

Скачать .torrent

Скачать

13 KB

Статус: проверено
Скачан: 0 раз
Размер: 2,53 GB
Правила
Последние поблагодарившие...



Показать сообщения:    

Текущее время: 11-Дек 02:17

Часовой пояс: UTC ± 0


Вы не можете начинать темы
Вы не можете отвечать на сообщения
Вы не можете редактировать свои сообщения
Вы не можете удалять свои сообщения
Вы не можете голосовать в опросах
Вы не можете прикреплять файлы к сообщениям
Вы можете скачивать файлы

Сайт не предоставляет электронные версии произведений, а занимается лишь коллекционированием и каталогизацией ссылок, присылаемых и публикуемых на форуме нашими читателями. Если вы являетесь правообладателем какого-либо представленного материала и не желаете, чтобы ссылка на него находилась в нашем каталоге, свяжитесь с нами, и мы незамедлительно удалим ее. Файлы для обмена на трекере предоставлены пользователями сайта, и администрация не несет ответственности за их содержание. Просьба не заливать файлы, защищенные авторскими правами, а также файлы нелегального содержания!