e-Commerce Partners Network




Статистика раздачи
Размер:  1,9 GB   |    Зарегистрирован:  1 год 7 месяцев   |    Скачан:  0 раз

Полного источника не было: Никогда

 
   
 
 

[Цитировать]

Информация о фильме:
Название: Цимбелин
Оригинальное название: Cymbeline
Год выхода: 2014
Производство:США / Benaroya Pictures, Keep Your Head Productions
Жанр: драма
Режиссер: Майкл Алмерейда
Продюсер: Майкл Бенаройя, Энтони Катагас, Эшли Берден
Актеры: Эд Харрис, Дакота Джонсон, Пенн Бэджли, Антон Ельчин, Итан Хоук, Милла Йовович, Джон Легуизамо, Делрой Линдо, Вонди Куртис-Холл, Питер Герети
О фильме:
Современный пересказ одноименной трагедии Уильяма Шекспира. Действие перенесено в наши дни. Цимбелин, лидер байкеров-наркоторговцев, объявляет войну местным продажным полицейским. Его дочери, Имогене и ее возлюбленному Постуму приходится самим сражаться за свою любовь…

Файл:
Продолжительность: 01:38:32
Качество видео: BDRip-AVC
Перевод: Двуголосый закадровый, любительский
Озвучка / Автор перевода: (Студия Пиратского Дубляжа)
Субтитры: Английские
Видеокодек: AVC/H.264
Битрейт видео: 1 936 Kbps
Размер кадра: 1 024x554
Аудио #1: Русский - AC3 / 2.0 / 48.0 KHz / 384 Kbps
Аудио #2: Английский - AC3 / 5.1 / 48.0 KHz / 384 Kbps
MediaInfo
General
Unique ID : 185577324942415943308844363400899243480 (0x8B9CE488AE5BE19AAEE209F73EA0ADD8)
Complete name : C:CREATE264mod1outCymbelineCymbeline.2014.576p.BluRay.AC3.x264.mkv
Format : Matroska
Format version : Version 4 / Version 2
File size : 1.90 GiB
Duration : 1h 38mn
Overall bit rate : 2 759 Kbps
Movie name : Cymbeline (2014)
Encoded date : UTC 2015-05-09 12:13:32
Writing application : mkvmerge v7.8.0 ('River Man') 32bit built on Mar 27 2015 16:18:02
Writing library : libebml v1.3.1 + libmatroska v1.4.2
Attachements : cover.jpg
_STATISTICS_WRITING_APP : mkvmerge v7.8.0 ('River Man') 32bit built on Mar 27 2015 16:18:02
_STATISTICS_WRITING_DATE_UT : 2015-05-09 12:13:32
_STATISTICS_TAGS : BPS DURATION NUMBER_OF_FRAMES NUMBER_OF_BYTES
DURATION : 01:28:39.480000000
NUMBER_OF_FRAMES : 792
NUMBER_OF_BYTES : 33830
Video
ID : 1
Format : AVC
Format/Info : Advanced Video Codec
Format profile : High@L3.1
Format settings, CABAC : Yes
Format settings, ReFrames : 8 frames
Codec ID : V_MPEG4/ISO/AVC
Duration : 1h 38mn
Bit rate : 1 936 Kbps
Width : 1 024 pixels
Height : 554 pixels
Display aspect ratio : 1.85:1
Frame rate mode : Constant
Frame rate : 23.976 fps
Color space : YUV
Chroma subsampling : 4:2:0
Bit depth : 8 bits
Scan type : Progressive
Bits/(Pixel*Frame) : 0.142
Stream size : 1.33 GiB (70%)
Title : Cymbeline (2014)
Writing library : x264 core 146 r2538 121396c
Encoding settings : cabac=1 / ref=8 / deblock=1:-3:-3 / analyse=0x3:0x133 / me=umh / subme=10 / psy=1 / psy_rd=1.00:0.15 / mixed_ref=1 / me_range=32 / chroma_me=1 / trellis=2 / 8x8dct=1 / cqm=0 / deadzone=21,11 / fast_pskip=0 / chroma_qp_offset=-3 / threads=12 / lookahead_threads=2 / sliced_threads=0 / nr=0 / decimate=0 / interlaced=0 / bluray_compat=0 / constrained_intra=0 / bframes=9 / b_pyramid=2 / b_adapt=2 / b_bias=0 / direct=3 / weightb=1 / open_gop=0 / weightp=2 / keyint=250 / keyint_min=23 / scenecut=40 / intra_refresh=0 / rc_lookahead=48 / rc=crf / mbtree=1 / crf=17.5 / qcomp=0.60 / qpmin=0 / qpmax=69 / qpstep=4 / vbv_maxrate=17500 / vbv_bufsize=17500 / crf_max=0.0 / nal_hrd=none / filler=0 / ip_ratio=1.40 / aq=3:0.95 / zones=133929,141740,q=33
Language : English
Default : Yes
Forced : No
Color primaries : BT.709
Transfer characteristics : BT.709
Matrix coefficients : BT.709
Color range : Limited
_STATISTICS_WRITING_APP : mkvmerge v7.8.0 ('River Man') 32bit built on Mar 27 2015 16:18:02
_STATISTICS_WRITING_DATE_UT : 2015-05-09 12:13:32
_STATISTICS_TAGS : BPS DURATION NUMBER_OF_FRAMES NUMBER_OF_BYTES
DURATION : 01:38:31.739000000
NUMBER_OF_FRAMES : 141740
NUMBER_OF_BYTES : 1469383257
Audio #1
ID : 2
Format : AC-3
Format/Info : Audio Coding 3
Mode extension : CM (complete main)
Format settings, Endianness : Big
Codec ID : A_AC3
Duration : 1h 38mn
Bit rate mode : Constant
Bit rate : 384 Kbps
Channel(s) : 2 channels
Channel positions : Front: L R
Sampling rate : 48.0 KHz
Bit depth : 16 bits
Compression mode : Lossy
Stream size : 271 MiB (14%)
Title : DVO
Language : Russian
Default : Yes
Forced : No
Audio #2
ID : 3
Format : AC-3
Format/Info : Audio Coding 3
Mode extension : CM (complete main)
Format settings, Endianness : Big
Codec ID : A_AC3
Duration : 1h 38mn
Bit rate mode : Constant
Bit rate : 384 Kbps
Channel(s) : 6 channels
Channel positions : Front: L C R, Side: L R, LFE
Sampling rate : 48.0 KHz
Bit depth : 16 bits
Compression mode : Lossy
Stream size : 271 MiB (14%)
Title : original
Language : English
Default : No
Forced : No
Text
ID : 4
Format : UTF-8
Codec ID : S_TEXT/UTF8
Codec ID/Info : UTF-8 Plain Text
Language : English
Default : Yes
Forced : No
Menu
00:00:00.000 : en:Chapter 1
00:10:20.000 : en:Chapter 2
00:21:22.000 : en:Chapter 3
00:30:48.000 : en:Chapter 4
00:40:03.000 : en:Chapter 5
00:50:36.000 : en:Chapter 6
01:00:59.000 : en:Chapter 7
01:09:26.000 : en:Chapter 8
01:19:23.000 : en:Chapter 9
01:25:00.000 : en:Chapter 10
01:33:13.000 : en:Chapter 11
1 nomination. See more awards »
Venice Film Festival 2014 - Nominated - Venice Horizons Award - Best Film - Michael Almereyda
Скриншоты

e-Commerce Partners Network
[fast-picture.ru].t48.torrent 
Торрент: Зарегистрирован   [ 2015-05-09 21:41 ] · BAED38B58FC435D38DF21E91A49F78D480B806E1

Скачать .torrent

Скачать

20 KB

Статус: проверено
Скачан: 0 раз
Размер: 1,9 GB
Правила
Последние поблагодарившие...



Показать сообщения:    

Текущее время: 11-Дек 07:53

Часовой пояс: UTC ± 0


Вы не можете начинать темы
Вы не можете отвечать на сообщения
Вы не можете редактировать свои сообщения
Вы не можете удалять свои сообщения
Вы не можете голосовать в опросах
Вы не можете прикреплять файлы к сообщениям
Вы можете скачивать файлы

Сайт не предоставляет электронные версии произведений, а занимается лишь коллекционированием и каталогизацией ссылок, присылаемых и публикуемых на форуме нашими читателями. Если вы являетесь правообладателем какого-либо представленного материала и не желаете, чтобы ссылка на него находилась в нашем каталоге, свяжитесь с нами, и мы незамедлительно удалим ее. Файлы для обмена на трекере предоставлены пользователями сайта, и администрация не несет ответственности за их содержание. Просьба не заливать файлы, защищенные авторскими правами, а также файлы нелегального содержания!