e-Commerce Partners Network




Статистика раздачи
Размер:  1,45 GB   |    Зарегистрирован:  1 год 6 месяцев   |    Скачан:  0 раз

Полного источника не было: Никогда

 
   
 
 

[Цитировать]

Страна: Норвегия, Дания, Швеция
Жанр: триллер, криминал, драма
Год выпуска: 2014
Продолжительность: 01:56:29
Перевод: Профессиональный (многоголосый закадровый)
Cубтитры: нет
Оригинальная аудиодорожка: Норвежский
Режиссер:
Ганс Петтер Моланд / Hans Petter Moland
В ролях:
Стеллан Скарсгард, Биргитта Йорт Сёренсен, Тобиас Зантельман, Кристофер Хивью, Бруно Ганц, Якоб Офтебро, Пол Сверре Валхейм Хаген, Андерс Баасмо Кристиансен, Сергей Трифунович, Петер Андерссон
Описание: Норвегия. Зима. Трудолюбивый Нилс управляет мощным плужным снегоочистителем, который очищает дороги и горные проходы негостеприимного обледенелого ландшафта местности, где он сам живёт. Совсем недавно он был признан жителем года за свои старания, а теперь получает известие о том, что его сын погиб в результате передозировки героина. Отказываясь верить в правдивость официальной версии смерти своего сына, он начинает тайное расследование с целью найти предполагаемых убийц парня. Однако дальнейшие события разворачиваются самым непредсказуемым образом, и ему приходится стать таинственным героем, внушающим страх в преступном мире.

Сэмпл
Качество видео: BDRip-AVC [Blu-ray Remux 1080p-hdclub]
Формат видео: MKV
Видео кодек: AVC
Аудио кодек: AC3
Видео: 1399 Кбит/сек, 1040*442 (2,35:1), в 24,000 кадр/сек, AVC
Аудио #1: Russian, 192 Кбит/сек, 48,0 КГц, 16 бит, 2 канала(ов), AC-3
Аудио #2: Norwegian, 192 Кбит/сек, 48,0 КГц, 16 бит, 2 канала(ов), AC-3
MediaInfo
Общее
Уникальный идентификатор : 186295580656636014807172558209404466266 (0x8C27394653D627039B86B93B4B9D745A)
Полное имя : L:рипыДурацкое дело нехитроеDurackoe.delo.nehitroe.2014.BDRip-AVC.MVO.1.45Gb...stalkerok.new-team.mkv
Формат : Matroska
Размер файла : 1,45 Гбайт
Продолжительность : 1 ч. 56 м.
Общий поток : 1785 Кбит/сек
Название фильма : In Order of Disappearance, 2014 (New-Team) (Rip by Stalker oK)
Дата кодирования : UTC 2015-05-26 18:37:18
Программа кодирования : mkvmerge v7.9.0 ('Birds') 64bit
Библиотека кодирования : libebml v1.3.1 + libmatroska v1.4.2
Видео
Идентификатор : 1
Формат : AVC
Формат/Информация : Advanced Video Codec
Профиль формата : High@L4.1
Параметр CABAC формата : Да
Параметр ReFrames формата : 14 кадры
Идентификатор кодека : V_MPEG4/ISO/AVC
Продолжительность : 1 ч. 56 м.
Битрейт : 1399 Кбит/сек
Ширина : 1040 пикс.
Высота : 442 пикс.
Соотношение сторон : 2,35:1
Частота кадров : 24,000 кадр/сек
Цветовое пространство : YUV
Подвыборка цветности : 4:2:0
Битовая глубина : 8 бит
Тип развёртки : Прогрессивная
Бит/(Пиксели*Кадры) : 0.127
Размер потока : 1,11 Гбайт (76%)
Библиотека кодирования : x264 core 146 r2538kMod 121396c
Настройки программы : cabac=1 / ref=14 / deblock=1:-3:-3 / analyse=0x3:0x133 / me=umh / subme=11 / psy=1 / fade_compensate=0.00 / psy_rd=1.00:0.15 / mixed_ref=1 / me_range=32 / chroma_me=1 / trellis=2 / 8x8dct=1 / cqm=0 / deadzone=21,11 / fast_pskip=0 / chroma_qp_offset=-3 / threads=12 / lookahead_threads=3 / sliced_threads=0 / nr=0 / decimate=0 / interlaced=0 / bluray_compat=0 / constrained_intra=0 / fgo=0 / bframes=16 / b_pyramid=2 / b_adapt=2 / b_bias=0 / direct=3 / weightb=1 / open_gop=0 / weightp=2 / keyint=240 / keyint_min=24 / scenecut=40 / intra_refresh=0 / rc_lookahead=40 / rc=2pass / mbtree=0 / bitrate=1399 / ratetol=1.0 / qcomp=0.65 / qpmin=0 / qpmax=69 / qpstep=4 / cplxblur=20.0 / qblur=0.5 / vbv_maxrate=50000 / vbv_bufsize=62500 / nal_hrd=none / filler=0 / ip_ratio=1.30 / pb_ratio=1.20 / aq=3:0.80
Аудио #1
Идентификатор : 2
Формат : AC-3
Формат/Информация : Audio Coding 3
Расширение режима : CM (complete main)
Идентификатор кодека : A_AC3
Продолжительность : 1 ч. 56 м.
Вид битрейта : Постоянный
Битрейт : 192 Кбит/сек
Канал(ы) : 2 канала(ов)
Расположение каналов : Front: L R
Частота : 48,0 КГц
Битовая глубина : 16 бит
Метод сжатия : С потерями
Размер потока : 160 Мбайт (11%)
Язык : Russian
Аудио #2
Идентификатор : 3
Формат : AC-3
Формат/Информация : Audio Coding 3
Расширение режима : CM (complete main)
Идентификатор кодека : A_AC3
Продолжительность : 1 ч. 56 м.
Вид битрейта : Постоянный
Битрейт : 192 Кбит/сек
Канал(ы) : 2 канала(ов)
Расположение каналов : Front: L R
Частота : 48,0 КГц
Битовая глубина : 16 бит
Метод сжатия : С потерями
Размер потока : 160 Мбайт (11%)
Язык : Norwegian
Меню
00:00:00.000 : en:Chapter 1
00:07:48.665 : en:Chapter 2
00:21:41.040 : en:Chapter 3
00:29:42.833 : en:Chapter 4
00:45:40.541 : en:Chapter 5
00:56:47.458 : en:Chapter 6
01:04:23.416 : en:Chapter 7
01:18:24.500 : en:Chapter 8
01:21:56.041 : en:Chapter 9
01:33:57.832 : en:Chapter 10
01:36:26.332 : en:Chapter 11
01:51:13.332 : en:Chapter 12
Скриншоты:

e-Commerce Partners Network
[fast-picture.ru].t481.torrent 
Торрент: Зарегистрирован   [ 2015-05-27 02:28 ] · 59357FC02F85D605777E6D9FC3ACC1137D8013A9

Скачать .torrent

Скачать

15 KB

Статус: проверено
Скачан: 0 раз
Размер: 1,45 GB
Правила
Последние поблагодарившие...



Показать сообщения:    

Текущее время: 11-Дек 02:16

Часовой пояс: UTC ± 0


Вы не можете начинать темы
Вы не можете отвечать на сообщения
Вы не можете редактировать свои сообщения
Вы не можете удалять свои сообщения
Вы не можете голосовать в опросах
Вы не можете прикреплять файлы к сообщениям
Вы можете скачивать файлы

Сайт не предоставляет электронные версии произведений, а занимается лишь коллекционированием и каталогизацией ссылок, присылаемых и публикуемых на форуме нашими читателями. Если вы являетесь правообладателем какого-либо представленного материала и не желаете, чтобы ссылка на него находилась в нашем каталоге, свяжитесь с нами, и мы незамедлительно удалим ее. Файлы для обмена на трекере предоставлены пользователями сайта, и администрация не несет ответственности за их содержание. Просьба не заливать файлы, защищенные авторскими правами, а также файлы нелегального содержания!