e-Commerce Partners Network




Статистика раздачи
Размер:  1,31 GB   |    Зарегистрирован:  1 год 6 месяцев   |    Скачан:  0 раз

Полного источника не было: Никогда

 
   
 
 

[Цитировать]

Информация о фильме
Название: Кабинет
Оригинальное название: Parlor
Год выхода: 2015
Жанр: ужасы
Режиссер: Девон Даунс
В ролях: Роберт ЛаСардо, Джордан Джеймс Смит, Сара Фабел, Энтони Дель Негро, Клер Гарви, Тиффани ДеМарко, Джои Фишер, Бен Уэйлен, Бет Хамфрис, Ник Голдман
О фильме: Шесть парней, которые являются студентами и учатся в хорошем колледже, однажды решили провести каникулы в Восточной Европе. Куда они с удовольствием поехали, находясь в великолепном настроении. Но, так как они слишком гнались за весельем, то оно им не досталось. Потому что на их пути повстречался татуировщик-садист. В свободное время этот малый занимался тем, что делал татуировки людям. Но, казалось бы, зарабатывая на этом деле, он должен быть творческим человеком. Но не тут-то было. Он имеет еще один интересный вид дохода. Студентики попали в его лапы. Вот и начнется эксперимент. Но, узнать о нем можно лишь…

Выпущено: США
Продолжительность: 01:38:46
Озвучивание: Любительское (двухголосное) [den904 & DeadSno], перевод [Antonio]
Файл
Формат: MKV
Качество: WEB-DLRip-AVC
Видео: 1668 kb/s, 1024x428
Аудио: AC3, 192 kb/s (2 ch)
M/I
General
Unique ID : 98372974367123902057949280314729254194 (0x4A01F219BC8CD6DA4DE027FDCFB94D32)
Complete name : F:Кабинет.2015.L2.WEB-DLRIP_AVC.[-=DoMiNo=-].mkv
Format : Matroska
Format version : Version 4 / Version 2
File size : 1.31 GiB
Duration : 1h 38mn
Overall bit rate : 1 898 Kbps
Writing application : XviD4PSP 7.0.133
Writing library : Lavf56.15.102
Video
ID : 1
Format : AVC
Format/Info : Advanced Video Codec
Format profile : High@L4.1
Format settings, CABAC : Yes
Format settings, ReFrames : 12 frames
Codec ID : V_MPEG4/ISO/AVC
Duration : 1h 38mn
Bit rate : 1 668 Kbps
Width : 1 024 pixels
Height : 428 pixels
Display aspect ratio : 2.40:1
Frame rate mode : Constant
Frame rate : 23.976 fps
Color space : YUV
Chroma subsampling : 4:2:0
Bit depth : 8 bits
Scan type : Progressive
Bits/(Pixel*Frame) : 0.159
Stream size : 1.15 GiB (88%)
Writing library : x264 core 146 r2538M 121396c
Encoding settings : cabac=1 / ref=12 / deblock=1:-3:-3 / analyse=0x3:0x133 / me=umh / subme=10 / psy=1 / psy_rd=1,00:0,10 / mixed_ref=1 / me_range=32 / chroma_me=1 / trellis=2 / 8x8dct=1 / cqm=0 / deadzone=21,11 / fast_pskip=0 / chroma_qp_offset=-3 / threads=12 / lookahead_threads=3 / sliced_threads=0 / nr=0 / decimate=1 / interlaced=0 / bluray_compat=0 / constrained_intra=0 / bframes=11 / b_pyramid=2 / b_adapt=2 / b_bias=0 / direct=1 / weightb=1 / open_gop=0 / weightp=2 / keyint=230 / keyint_min=23 / scenecut=40 / intra_refresh=0 / rc=crf / mbtree=0 / crf=18,0 / qcomp=0,60 / qpmin=10 / qpmax=69 / qpstep=4 / ip_ratio=1,40 / pb_ratio=1,30 / aq=1:1,00
Language : English
Default : Yes
Forced : No
Color range : Limited
Color primaries : BT.709
Transfer characteristics : BT.709
Matrix coefficients : BT.709
Audio
ID : 2
Format : AC-3
Format/Info : Audio Coding 3
Mode extension : CM (complete main)
Format settings, Endianness : Big
Codec ID : A_AC3
Duration : 1h 38mn
Bit rate mode : Constant
Bit rate : 192 Kbps
Channel(s) : 2 channels
Channel positions : Front: L R
Sampling rate : 48.0 KHz
Bit depth : 32 bits
Compression mode : Lossy
Stream size : 136 MiB (10%)
Language : Russian
Default : Yes
Forced : No
Menu
00:00:00.000 : :Chapter 1
00:08:47.000 : :Chapter 2
00:16:33.000 : :Chapter 3
00:23:05.000 : :Chapter 4
00:30:20.000 : :Chapter 5
00:40:32.000 : :Chapter 6
00:47:04.000 : :Chapter 7
00:54:18.000 : :Chapter 8
01:01:48.000 : :Chapter 9
01:09:15.000 : :Chapter 10
01:17:52.000 : :Chapter 11
01:26:39.000 : :Chapter 12
01:35:07.000 : :Chapter 13
--
Скриншоты:
--

e-Commerce Partners Network
[fast-picture.ru].t496.torrent 
Торрент: Зарегистрирован   [ 2015-05-28 02:15 ] · C0AC8E4C3D156C48C3D1FCA4B38F9CB1BD64D179

Скачать .torrent

Скачать

14 KB

Статус: проверено
Скачан: 0 раз
Размер: 1,31 GB
Правила
Последние поблагодарившие...



Показать сообщения:    

Текущее время: 06-Дек 19:47

Часовой пояс: UTC ± 0


Вы не можете начинать темы
Вы не можете отвечать на сообщения
Вы не можете редактировать свои сообщения
Вы не можете удалять свои сообщения
Вы не можете голосовать в опросах
Вы не можете прикреплять файлы к сообщениям
Вы можете скачивать файлы

Сайт не предоставляет электронные версии произведений, а занимается лишь коллекционированием и каталогизацией ссылок, присылаемых и публикуемых на форуме нашими читателями. Если вы являетесь правообладателем какого-либо представленного материала и не желаете, чтобы ссылка на него находилась в нашем каталоге, свяжитесь с нами, и мы незамедлительно удалим ее. Файлы для обмена на трекере предоставлены пользователями сайта, и администрация не несет ответственности за их содержание. Просьба не заливать файлы, защищенные авторскими правами, а также файлы нелегального содержания!