e-Commerce Partners Network




Статистика раздачи
Размер:  4,25 GB   |    Зарегистрирован:  1 год 6 месяцев   |    Скачан:  1 раз

Полного источника не было: 1 год 6 месяцев

 
   
 
 

[Цитировать]

Русское название: Всё ещё Элис
Оригинальное название: Still Alice
Год выпуска: 2014
Жанр: драма
Выпущено: США, Франция
Режиссер: Ричард Глацер, Уош Уэстмоленд
В ролях: Джулианна Мур , Алек Болдуин , Кристен Стюарт , Кейт Босворт , Шэйн МакРей , Хантер Пэрриш , Сет Гиллиам , Стефан Канкен , Эрин Дрэйк , Дэниэл Джерролл , Куинси Тайлер Бернстайн , Максин Прескотт
Перевод: Профессиональный многоголосый (Лицензия), Авторский (одноголосый)

Сюжет фильма: Элис Хаулэнд - известный профессор лингвистики. Она счастлива в браке, у нее трое взрослых детей. Но все меняется, когда однажды она начинает забывать слова...

Качество: BDRip 720p
Формат: AVC (библиотека кодирования x.264)
Контейнер (Расширение): MKV
Видео: 1280x688, 4669 Кбит/сек, 23,976 кадр/сек, 0,221 Бит/[Пиксели*Кадры]
Аудио №1: русский / AC3 / 5.1 / 48 kHz / 384 kbps / |Профессиональный многоголосый|
Аудио №2: русский / AC3 / 5.1 / 48 kHz / 320 kbps / |Авторский, В. Котов|
Аудио №3: английский / AC3 / 5.1 / 48 kHz / 640 kbps /
Субтитры: русские, английские
Навигация по главам(Чаптеры): есть
Продолжительность: 01:41:15
Видеоряд от WiKi
MediaInfo
Format : Matroska
Format version : Version 2
File size : 4.25 GiB
Duration : 1h 41mn
Overall bit rate : 6 011 Kbps
Movie name : Vsjo eshhjo Jelis.(2014).BDRip.720p.[denis100]
Encoded date : UTC 2015-05-27 15:33:25
Writing application : mkvmerge v5.8.0 ('No Sleep / Pillow') built on Sep 2 2012 15:37:04
Writing library : libebml v1.2.3 + libmatroska v1.3.0
Attachment : Yes
Video
ID : 1
Format : AVC
Format/Info : Advanced Video Codec
Format profile : High@L4.1
Format settings, CABAC : Yes
Format settings, ReFrames : 9 frames
Codec ID : V_MPEG4/ISO/AVC
Duration : 1h 41mn
Bit rate : 4 669 Kbps
Width : 1 280 pixels
Height : 688 pixels
Display aspect ratio : 1.860
Frame rate : 23.976 fps
Color space : YUV
Chroma subsampling : 4:2:0
Bit depth : 8 bits
Scan type : Progressive
Bits/(Pixel*Frame) : 0.221
Stream size : 3.22 GiB (76%)
Title : Vsjo eshhjo Jelis.(2014).BDRip.720p.[denis100]
Writing library : x264 core 129 r2245 bc13772
Encoding settings : cabac=1 / ref=9 / deblock=1:-3:-3 / analyse=0x3:0x133 / me=umh / subme=11 / psy=1 / psy_rd=1.05:0.05 / mixed_ref=1 / me_range=32 / chroma_me=1 / trellis=2 / 8x8dct=1 / cqm=0 / deadzone=21,11 / fast_pskip=0 / chroma_qp_offset=-3 / threads=12 / lookahead_threads=2 / sliced_threads=0 / nr=0 / decimate=1 / interlaced=0 / bluray_compat=0 / constrained_intra=0 / bframes=8 / b_pyramid=2 / b_adapt=2 / b_bias=0 / direct=3 / weightb=1 / open_gop=0 / weightp=2 / keyint=250 / keyint_min=23 / scenecut=40 / intra_refresh=0 / rc_lookahead=60 / rc=2pass / mbtree=1 / bitrate=4669 / ratetol=1.0 / qcomp=0.60 / qpmin=0 / qpmax=69 / qpstep=4 / cplxblur=20.0 / qblur=0.5 / vbv_maxrate=40000 / vbv_bufsize=30000 / nal_hrd=none / ip_ratio=1.40 / aq=1:0.80
Language : English
Default : Yes
Forced : No
Audio #1
ID : 2
Format : AC-3
Format/Info : Audio Coding 3
Mode extension : CM (complete main)
Codec ID : A_AC3
Duration : 1h 41mn
Bit rate mode : Constant
Bit rate : 384 Kbps
Channel(s) : 6 channels
Channel positions : Front: L C R, Side: L R, LFE
Sampling rate : 48.0 KHz
Bit depth : 16 bits
Compression mode : Lossy
Stream size : 278 MiB (6%)
Title : MVO (Лицензия)
Language : Russian
Default : Yes
Forced : No
Audio #2
ID : 3
Format : AC-3
Format/Info : Audio Coding 3
Mode extension : CM (complete main)
Codec ID : A_AC3
Duration : 1h 41mn
Bit rate mode : Constant
Bit rate : 320 Kbps
Channel(s) : 6 channels
Channel positions : Front: L C R, Side: L R, LFE
Sampling rate : 48.0 KHz
Bit depth : 16 bits
Compression mode : Lossy
Stream size : 232 MiB (5%)
Title : AVO (Kotov)
Language : Russian
Default : No
Forced : No
Audio #3
ID : 4
Format : AC-3
Format/Info : Audio Coding 3
Mode extension : CM (complete main)
Codec ID : A_AC3
Duration : 1h 41mn
Bit rate mode : Constant
Bit rate : 640 Kbps
Channel(s) : 6 channels
Channel positions : Front: L C R, Side: L R, LFE
Sampling rate : 48.0 KHz
Bit depth : 16 bits
Compression mode : Lossy
Stream size : 463 MiB (11%)
Language : English
Default : No
Forced : No
Text #1
ID : 5
Format : UTF-8
Codec ID : S_TEXT/UTF8
Codec ID/Info : UTF-8 Plain Text
Language : Russian
Default : No
Forced : No
Text #2
ID : 6
Format : UTF-8
Codec ID : S_TEXT/UTF8
Codec ID/Info : UTF-8 Plain Text
Language : English
Default : No
Forced : No
Menu
00:00:00.000 : en:00:00:00.000
00:04:40.697 : en:00:04:40.697
00:11:03.246 : en:00:11:03.246
00:15:37.895 : en:00:15:37.895
00:21:34.668 : en:00:21:34.668
00:28:51.063 : en:00:28:51.063
00:36:54.546 : en:00:36:54.546
00:43:54.841 : en:00:43:54.841
00:49:39.518 : en:00:49:39.518
00:58:20.247 : en:00:58:20.247
01:05:08.863 : en:01:05:08.863
01:11:36.000 : en:01:11:36.000
01:16:38.886 : en:01:16:38.886
01:20:02.172 : en:01:20:02.172
01:27:08.849 : en:01:27:08.849
01:30:08.945 : en:01:30:08.945
Скриншоты

e-Commerce Partners Network
[fast-picture.ru].t503.torrent 
Торрент: Зарегистрирован   [ 2015-05-28 02:47 ] · 70EBD77B0FBA4B40BF41BF267EF28524FB2F2DD6

Скачать .torrent

Скачать

22 KB

Статус: проверено
Скачан: 1 раз
Размер: 4,25 GB
Правила
Последние поблагодарившие...



Показать сообщения:    

Текущее время: 03-Дек 23:52

Часовой пояс: UTC ± 0


Вы не можете начинать темы
Вы не можете отвечать на сообщения
Вы не можете редактировать свои сообщения
Вы не можете удалять свои сообщения
Вы не можете голосовать в опросах
Вы не можете прикреплять файлы к сообщениям
Вы можете скачивать файлы

Сайт не предоставляет электронные версии произведений, а занимается лишь коллекционированием и каталогизацией ссылок, присылаемых и публикуемых на форуме нашими читателями. Если вы являетесь правообладателем какого-либо представленного материала и не желаете, чтобы ссылка на него находилась в нашем каталоге, свяжитесь с нами, и мы незамедлительно удалим ее. Файлы для обмена на трекере предоставлены пользователями сайта, и администрация не несет ответственности за их содержание. Просьба не заливать файлы, защищенные авторскими правами, а также файлы нелегального содержания!