e-Commerce Partners Network




Статистика раздачи
Размер:  6,51 GB   |    Зарегистрирован:  1 год 6 месяцев   |    Скачан:  1 раз

Полного источника не было: 4 месяца 14 дней

 
   
 
 

[Цитировать]

Информация о фильме
Название: Собачий полдень
Оригинальное название: Dog Day Afternoon
Год выхода: 1975
Жанр: драма, криминал
Режиссер: Сидни Люмет /Sidney Lumet/
В ролях: Аль Пачино /Al Pacino/, Джон Казале /John Cazale/, Чарльз Дёрнинг /Charles Durning/, Крис Сарандон /Chris Sarandon/, Салли Бойар /Sully Boyar/, Пенелопа Аллен /Penelope Allen/, Джеймс Бродерик /James Broderick/, Кэрол Кейн /Carol Kane/, Бьюла Гэррик /Beulah Garrick/, Сандра Кэзан /Sandra Kazan/...
О фильме: В жаркий бруклинский полдень двое воодушевленных неудачников решают ограбить банк. Санни — главарь, Сэл — помощник, а провал — результат. Потому что полиция, толпы зевак, телекамеры и даже разносчик пиццы прибыли на место происшествия. «Хорошо спланированное» ограбление превращается в цирк.

Страна: США
Продолжительность: 02:04:39
Перевод: Русский профессиональный, многоголосый + Оригинальная, английская дорожка
Файл
Кодек: MKV, H.264
Качество: BDRip 720p (Source: Blu-ray Disc)
Видео: 6941 kbps; 0.314 bit/pixel; 1280 x 720; 16:9; 23.976 fps
Звук #1: AC3 Dolby Digital; 192.00 kbps, 2 Ch - MVO
Звук #2: AC3 Dolby Digital; 192.00 kbps, 1 Ch - ENG
Субтитры: Русские, Английские.
Размер: 6.51 GB
MediaInfo
General
Complete name : Sobachiy.Polden.1975.DUAL.BDRip.720p.h264.AC3.-HQ-ViDEO.mkv
Format : Matroska
File size : 6.51 GiB
Duration : 2h 4mn
Overall bit rate : 7 474 Kbps
Movie name : Dog Day Afternoon (1975)
Encoded date : UTC 2010-09-24 05:01:17
Writing application : mkvmerge v3.3.0 ('Language') built on Mar 24 2010 14:59:24
Writing library : libebml v0.8.0 + libmatroska v0.9.0
Video
ID : 1
Format : AVC
Format/Info : Advanced Video Codec
Format profile : High@L4.1
Format settings, CABAC : Yes
Format settings, ReFrames : 6 frames
Muxing mode : Container profile=Unknown@4.1
Codec ID : V_MPEG4/ISO/AVC
Duration : 2h 4mn
Bit rate : 6 941 Kbps
Width : 1 280 pixels
Height : 720 pixels
Display aspect ratio : 16:9
Frame rate : 23.976 fps
Resolution : 8 bits
Colorimetry : 4:2:0
Scan type : Progressive
Bits/(Pixel*Frame) : 0.314
Stream size : 6.04 GiB (93%)
Title : Encoded by GYN
Audio #1
ID : 2
Format : AC-3
Format/Info : Audio Coding 3
Codec ID : A_AC3
Duration : 2h 4mn
Bit rate mode : Constant
Bit rate : 192 Kbps
Channel(s) : 2 channels
Channel positions : L R
Sampling rate : 48.0 KHz
Stream size : 171 MiB (3%)
Title : MVO
Language : Russian
Audio #2
ID : 3
Format : AC-3
Format/Info : Audio Coding 3
Codec ID : A_AC3
Duration : 2h 4mn
Bit rate mode : Constant
Bit rate : 192 Kbps
Channel(s) : 1 channel
Channel positions : C
Sampling rate : 48.0 KHz
Stream size : 171 MiB (3%)
Title : Original
Language : English
Text #1
ID : 4
Format : UTF-8
Codec ID : S_TEXT/UTF8
Codec ID/Info : UTF-8 Plain Text
Language : Russian
Text #2
ID : 5
Format : UTF-8
Codec ID : S_TEXT/UTF8
Codec ID/Info : UTF-8 Plain Text
Language : English
Скриншоты:
Автор рипа: GYN

e-Commerce Partners Network
[fast-picture.ru].t523.torrent 
Торрент: Зарегистрирован   [ 2015-05-29 09:25 ] · 3CCC13261AF79D6FB22C8E4E7D1763B560B02DFD

Скачать .torrent

Скачать

33 KB

Статус: проверено
Скачан: 1 раз
Размер: 6,51 GB
Правила
Последние поблагодарившие...



Показать сообщения:    

Текущее время: 11-Дек 08:00

Часовой пояс: UTC ± 0


Вы не можете начинать темы
Вы не можете отвечать на сообщения
Вы не можете редактировать свои сообщения
Вы не можете удалять свои сообщения
Вы не можете голосовать в опросах
Вы не можете прикреплять файлы к сообщениям
Вы можете скачивать файлы

Сайт не предоставляет электронные версии произведений, а занимается лишь коллекционированием и каталогизацией ссылок, присылаемых и публикуемых на форуме нашими читателями. Если вы являетесь правообладателем какого-либо представленного материала и не желаете, чтобы ссылка на него находилась в нашем каталоге, свяжитесь с нами, и мы незамедлительно удалим ее. Файлы для обмена на трекере предоставлены пользователями сайта, и администрация не несет ответственности за их содержание. Просьба не заливать файлы, защищенные авторскими правами, а также файлы нелегального содержания!