e-Commerce Partners Network




Статистика раздачи
Размер:  120 MB   |    Зарегистрирован:  1 год 6 месяцев   |    Скачан:  1 раз

Полного источника не было: 1 год 5 месяцев

 
   
 
 

[Цитировать]

Год выпуска: 2016
Производство: Россия
Жанр: история, боевик, триллер, драма
Режиссер: Рустам Мосафир
Продюсеры: Рустам Мосафир, Александр Наас
Описание фильма: Первая часть саги, рассказывающая о становлении легендарного русского богатыря Евпатия Коловрата.
Дата мировой премьеры: 2016

Продолжительность: 00:05:28
Качество видео: WEBRip
Видеокодек: MPEG-4 AVC/H.264
Битрейт видео: 2800 Кбит/сек
Размер кадра: 1920x1080
Аудиокодек: AC3 2.0
Битрейт аудио: 254 Кбит/сек
MediaInfo:
Общее
Полное имя : Коловрат. Восхождение (2016) Русский Тизер.mp4
Формат : MPEG-4
Профиль формата : Base Media
Идентификатор кодека : isom
Размер файла : 120 Мбайт
Продолжительность : 5 м. 28 с.
Общий поток : 3059 Кбит/сек
Программа кодирования : Lavf56.19.100
Видео
Идентификатор : 1
Формат : AVC
Формат/Информация : Advanced Video Codec
Профиль формата : High@L4
Параметр CABAC формата : Да
Параметр ReFrames формата : 2 кадра
Идентификатор кодека : avc1
Идентификатор кодека/Информация : Advanced Video Coding
Продолжительность : 5 м. 28 с.
Битрейт : 2800 Кбит/сек
Ширина : 1920 пикселей
Высота : 816 пикселей
Соотношение сторон : 2,35:1
Режим частоты кадров : Постоянный
Частота кадров : 25,000 кадров/сек
Цветовое пространство : YUV
Субдискретизация насыщенности : 4:2:0
Битовая глубина : 8 бит
Тип развёртки : Прогрессивная
Бит/(Пиксели*Кадры) : 0.071
Размер потока : 110 Мбайт (92%)
Аудио
Идентификатор : 2
Формат : AAC
Формат/Информация : Advanced Audio Codec
Профиль формата : LC
Идентификатор кодека : 40
Продолжительность : 5 м. 28 с.
Вид битрейта : Постоянный
Битрейт : 254 Кбит/сек
Каналы : 2 канала
Расположение каналов : Front: L R
Частота : 44,1 КГц
Метод сжатия : С потерями
Размер потока : 9,93 Мбайт (8%)
Скриншоты

e-Commerce Partners Network
[fast-picture.ru].t532.torrent 
Торрент: Зарегистрирован   [ 2015-05-29 13:03 ] · 5CD0DE4B058117287B898FB7922679C7C620E91B

Скачать .torrent

Скачать

19 KB

Статус: проверено
Скачан: 1 раз
Размер: 120 MB
Правила
Последние поблагодарившие...



Показать сообщения:    

Текущее время: 07-Дек 10:35

Часовой пояс: UTC ± 0


Вы не можете начинать темы
Вы не можете отвечать на сообщения
Вы не можете редактировать свои сообщения
Вы не можете удалять свои сообщения
Вы не можете голосовать в опросах
Вы не можете прикреплять файлы к сообщениям
Вы можете скачивать файлы

Сайт не предоставляет электронные версии произведений, а занимается лишь коллекционированием и каталогизацией ссылок, присылаемых и публикуемых на форуме нашими читателями. Если вы являетесь правообладателем какого-либо представленного материала и не желаете, чтобы ссылка на него находилась в нашем каталоге, свяжитесь с нами, и мы незамедлительно удалим ее. Файлы для обмена на трекере предоставлены пользователями сайта, и администрация не несет ответственности за их содержание. Просьба не заливать файлы, защищенные авторскими правами, а также файлы нелегального содержания!