e-Commerce Partners Network




Статистика раздачи
Размер:  7,76 GB   |    Зарегистрирован:  1 год 6 месяцев   |    Скачан:  0 раз

Полного источника не было: Никогда

 
   
 
 

[Цитировать]

Информация о фильме
Название: Голубая Лагуна
Оригинальное: The Blue Lagoon
Год выхода: 1980
Выпущено: Columbia Pictures Corporation
Страна: США
Жанр: Драма, мелодрама, приключения
Продолжительность: 01:44:44
Перевод: Дублированный + профессиональный (многоголосый, закадровый)
Режиссер: Рэндал Клайзер
В ролях: Брук Шилдс, Кристофер Аткинс, Лео МакКерн, Уильям Дэниелс, Элва Джозефсон, Гленн Коэн, Алан Хопгуд, Гас Меркюрио, Джефри Клайзер, Брэдли Прайс, Чад Тиммерман, Герт Джейкоби, Алекс Хэмилтон, Ричард Эвансон
-Сюжет фильма Страшное кораблекрушение, счастливое спасение и необитаемый остров положили начало одной из самых красивых и трогательных историй о любви. Долгие годы юная пара живет на прекрасном тропическом острове. Но по мере того, как они взрослеют, в их сердцах зарождается возвышенная, красивая, как окружающий мир, любовь. Романтическая история Адама и Евы, зарождения возвышенной и чувственной любви, красиво снятая оператором Нестором Альмендросом. Фильм является ремейком картины 1949 года. Экранизация одноимённого произведения Генри Де Вер Стэкпула.-Файл
Кодек: x264
Формат: MKV
Качество: BDRip 720p (Источник: HDClub / BDRemux 1080p)
Видео: MPEG-4 AVC 1280x694 pix, 23.976 fps, 9330 kbps, 0.438 Bits/Pixel
Аудио I: Dolby Digital 5.1 ch, 48 kHz, 448 kbps (MVO "R5")
Аудио II: Dolby Digital 2.0 ch, 48 kHz, 192 kbps (MVO "Первый канал")
Аудио III: Dolby Digital 2.0 ch, 48 kHz, 192 kbps (DUB "Варус Видео")
Аудио IV: Dolby Digital 5.1 ch, 48 kHz, 448 kbps (ENG "Original")
Субтитры: SRT Русские, Английский (полные, SDH)
Меню: Сохранены оригинальные чаптеры Blu-ray
Скриншоты:
MI & x264
x264 [info]: frame I:998 Avg QP:19.91 size:172410
x264 [info]: frame P:28830 Avg QP:22.47 size: 78063
x264 [info]: frame B:120840 Avg QP:24.45 size: 40602
x264 [info]: consecutive B-frames: 1.1% 0.9% 4.9% 12.9% 15.5% 52.0% 6.0% 3.4% 3.3%-General
Unique ID : 208515180394614418049640489458883559902 (0x9CDE901F55AE38A191BBB9BDB88701DE)
Format : Matroska
Format version : Version 2
File size : 7.76 GiB
Duration : 1h 44mn
Overall bit rate : 10.6 Mbps
Movie name : Голубая Лагуна (1980) BDRip (720p)
Encoded date : UTC 2015-05-27 17:30:52
Writing application : mkvmerge v5.8.0 ('No Sleep / Pillow') built on Sep 2 2012 15:37:04
Writing library : libebml v1.2.3 + libmatroska v1.3.0
Video
ID : 1
Format : AVC
Format/Info : Advanced Video Codec
Format profile : High@L4.1
Format settings, CABAC : Yes
Format settings, ReFrames : 8 frames
Codec ID : V_MPEG4/ISO/AVC
Duration : 1h 44mn
Bit rate : 9 330 Kbps
Width : 1 280 pixels
Height : 694 pixels
Display aspect ratio : 1.85:1
Frame rate mode : Constant
Frame rate : 23.976 fps
Color space : YUV
Chroma subsampling : 4:2:0
Bit depth : 8 bits
Scan type : Progressive
Bits/(Pixel*Frame) : 0.438
Stream size : 6.67 GiB (86%)
Title : Release by Alex260680
Writing library : x264 core 146 r2538 121396c
Encoding settings : cabac=1 / ref=8 / deblock=1:-3:-3 / analyse=0x3:0x133 / me=tesa / subme=11 / psy=1 / psy_rd=1.00:0.00 / mixed_ref=1 / me_range=24 / chroma_me=1 / trellis=2 / 8x8dct=1 / cqm=0 / deadzone=21,11 / fast_pskip=0 / chroma_qp_offset=-2 / threads=6 / lookahead_threads=1 / sliced_threads=0 / nr=0 / decimate=0 / interlaced=0 / bluray_compat=0 / constrained_intra=0 / bframes=8 / b_pyramid=2 / b_adapt=2 / b_bias=0 / direct=3 / weightb=1 / open_gop=0 / weightp=2 / keyint=240 / keyint_min=23 / scenecut=40 / intra_refresh=0 / rc=full2pass / mbtree=0 / bitrate=9330 / ratetol=1.0 / qcomp=0.60 / qpmin=0 / qpmax=69 / qpstep=4 / cplxblur=20.0 / qblur=0.5 / ip_ratio=1.40 / pb_ratio=1.30 / aq=1:1.00
Language : English
Default : Yes
Forced : No
Audio #1
ID : 2
Format : AC-3
Format/Info : Audio Coding 3
Mode extension : CM (complete main)
Format settings, Endianness : Big
Codec ID : A_AC3
Duration : 1h 44mn
Bit rate mode : Constant
Bit rate : 448 Kbps
Channel(s) : 6 channels
Channel positions : Front: L C R, Side: L R, LFE
Sampling rate : 48.0 KHz
Bit depth : 16 bits
Compression mode : Lossy
Stream size : 336 MiB (4%)
Title : MVO (R5)
Language : Russian
Default : Yes
Forced : No
Audio #2
ID : 3
Format : AC-3
Format/Info : Audio Coding 3
Mode extension : CM (complete main)
Format settings, Endianness : Big
Codec ID : A_AC3
Duration : 1h 44mn
Bit rate mode : Constant
Bit rate : 192 Kbps
Channel(s) : 2 channels
Channel positions : Front: L R
Sampling rate : 48.0 KHz
Bit depth : 16 bits
Compression mode : Lossy
Stream size : 144 MiB (2%)
Title : MVO (Первый канал)
Language : Russian
Default : No
Forced : No
Audio #3
ID : 4
Format : AC-3
Format/Info : Audio Coding 3
Mode extension : CM (complete main)
Format settings, Endianness : Big
Codec ID : A_AC3
Duration : 1h 44mn
Bit rate mode : Constant
Bit rate : 192 Kbps
Channel(s) : 2 channels
Channel positions : Front: L R
Sampling rate : 48.0 KHz
Bit depth : 16 bits
Compression mode : Lossy
Stream size : 144 MiB (2%)
Title : DUB (Варус Видео)
Language : Russian
Default : No
Forced : No
Audio #4
ID : 5
Format : AC-3
Format/Info : Audio Coding 3
Mode extension : CM (complete main)
Format settings, Endianness : Big
Codec ID : A_AC3
Duration : 1h 44mn
Bit rate mode : Constant
Bit rate : 448 Kbps
Channel(s) : 6 channels
Channel positions : Front: L C R, Side: L R, LFE
Sampling rate : 48.0 KHz
Bit depth : 16 bits
Compression mode : Lossy
Stream size : 336 MiB (4%)
Title : Original
Language : English
Default : No
Forced : No
Text #1
ID : 6
Format : UTF-8
Codec ID : S_TEXT/UTF8
Codec ID/Info : UTF-8 Plain Text
Title : Full
Language : Russian
Default : No
Forced : No
Text #2
ID : 7
Format : UTF-8
Codec ID : S_TEXT/UTF8
Codec ID/Info : UTF-8 Plain Text
Title : Full
Language : English
Default : No
Forced : No
Text #3
ID : 8
Format : UTF-8
Codec ID : S_TEXT/UTF8
Codec ID/Info : UTF-8 Plain Text
Title : SDH
Language : English
Default : No
Forced : No
Menu
00:00:00.000 : en:Chapter 01
00:09:54.010 : en:Chapter 02
00:19:09.106 : en:Chapter 03
00:28:04.307 : en:Chapter 04
00:39:53.557 : en:Chapter 05
00:45:27.599 : en:Chapter 06
00:51:52.192 : en:Chapter 07
01:03:37.188 : en:Chapter 08
01:08:21.972 : en:Chapter 09
01:19:24.217 : en:Chapter 10
01:32:03.893 : en:Chapter 11
01:43:06.930 : en:Chapter 12

e-Commerce Partners Network
[fast-picture.ru].t534.torrent 
Торрент: Зарегистрирован   [ 2015-05-29 16:27 ] · 915934B2C04CA4B5D21D895D3C1DDC8768112157

Скачать .torrent

Скачать

20 KB

Статус: проверено
Скачан: 0 раз
Размер: 7,76 GB
Правила
Последние поблагодарившие...



Показать сообщения:    

Текущее время: 11-Дек 07:55

Часовой пояс: UTC ± 0


Вы не можете начинать темы
Вы не можете отвечать на сообщения
Вы не можете редактировать свои сообщения
Вы не можете удалять свои сообщения
Вы не можете голосовать в опросах
Вы не можете прикреплять файлы к сообщениям
Вы можете скачивать файлы

Сайт не предоставляет электронные версии произведений, а занимается лишь коллекционированием и каталогизацией ссылок, присылаемых и публикуемых на форуме нашими читателями. Если вы являетесь правообладателем какого-либо представленного материала и не желаете, чтобы ссылка на него находилась в нашем каталоге, свяжитесь с нами, и мы незамедлительно удалим ее. Файлы для обмена на трекере предоставлены пользователями сайта, и администрация не несет ответственности за их содержание. Просьба не заливать файлы, защищенные авторскими правами, а также файлы нелегального содержания!