e-Commerce Partners Network




Статистика раздачи
Размер:  6,52 GB   |    Зарегистрирован:  1 год 6 месяцев   |    Скачан:  0 раз

Полного источника не было: Никогда

 
   
 
 

[Цитировать]

Информация о фильме
Название: Принц Персии: Пески времени
Оригинальное название: Prince of Persia: The Sands of Time
Год выхода: 2010
Жанр: фэнтези, боевик, мелодрама, приключения
Режиссер: Майк Ньюэлл /Mike Newell/
В ролях: Джейк Джилленхол /Jake Gyllenhaal/, Джемма Артертон /Gemma Arterton/, Бен Кингсли /Ben Kingsley/, Альфред Молина /Alfred Molina/, Стив Туссэн /Steve Toussaint/, Тоби Кеббелл /Toby Kebbell/, Ричард Койл /Richard Coyle/, Рональд Пикап /Ronald Pickup/, Рис Ричи /Reece Ritchie/, Гисли Орн Гардарссон /Gisli Orn Gar?arsson/...
О фильме: Главным героем здесь является Дастан – это очень молодой принц. Ему всегда удавалось побеждать врагов. Но все равно он потерял свое королевство, а все потому, что ему строил козни один очень нехороший царедворец. Теперь Дастан должен украсть из злых рук артефакт, который является магическим и имеет очень магущественную силу. Благодаря нему можно время обратить вспять, и сделает того, человека, кто им владеет самым главным во всем мире. И чтобы побороть всех врагов, парень должен вспомнить про все свои навыки владения холодным оружием. А также ему поможет то, что он отлично владеет эквилибристикой и акробатикой…

Страна: США
Продолжительность: 01:55:53
Перевод: Русский дублированный (Лицензия) + Украинский дублированный (Лицензия) + Оригинальная, английская дорожка
Файл
Кодек: MKV, H.264
Качество: BDRip 720p (Source: Blu-ray Disc)
Видео: 6545 kbps; 0.398 bit/pixel; 1280 x 536; 2.35:1; 23.976 fps
Звук #1: AC3 Dolby Digital; 448.00 kbps, 6 Ch - RUS DUB
Звук #2: AC3 Dolby Digital; 448.00 kbps, 6 Ch - UKR DUB
Звук #3: AC3 Dolby Digital; 448.00 kbps, 6 Ch - ENG
Субтитры: Русские, Английские.
Размер: 6.52 GB
MediaInfo
General
CComplete name : Princ.Persii.Peski.Vremeni.2010.TRIPLE.BDRip.h264.720p.AC3.-HQ-ViDEO.mkv
Format : Matroska
File size : 6.52 GiB
Duration : 1h 55mn
Overall bit rate : 8 049 Kbps
Movie name : Prince of Persia: The Sands of Time (2010)
Encoded date : UTC 2010-09-04 12:55:53
Writing application : mkvmerge v3.3.0 ('Language') built on Mar 24 2010 14:59:24
Writing library : libebml v0.8.0 + libmatroska v0.9.0
Video
ID : 1
Format : AVC
Format/Info : Advanced Video Codec
Format profile : High@L4.1
Format settings, CABAC : Yes
Format settings, ReFrames : 6 frames
Muxing mode : Container profile=Unknown@4.1
Codec ID : V_MPEG4/ISO/AVC
Duration : 1h 55mn
Bit rate : 6 545 Kbps
Width : 1 280 pixels
Height : 536 pixels
Display aspect ratio : 2.35:1
Frame rate : 23.976 fps
Resolution : 8 bits
Colorimetry : 4:2:0
Scan type : Progressive
Bits/(Pixel*Frame) : 0.398
Stream size : 5.29 GiB (81%)
Title : Encoded by GYN
Audio #1
ID : 2
Format : AC-3
Format/Info : Audio Coding 3
Codec ID : A_AC3
Duration : 1h 55mn
Bit rate mode : Constant
Bit rate : 448 Kbps
Channel(s) : 6 channels
Channel positions : Front: L C R, Surround: L R, LFE
Sampling rate : 48.0 KHz
Stream size : 371 MiB (6%)
Title : DUB
Language : Russian
Audio #2
ID : 3
Format : AC-3
Format/Info : Audio Coding 3
Codec ID : A_AC3
Duration : 1h 55mn
Bit rate mode : Constant
Bit rate : 448 Kbps
Channel(s) : 6 channels
Channel positions : Front: L C R, Surround: L R, LFE
Sampling rate : 48.0 KHz
Stream size : 371 MiB (6%)
Title : DUB
Language : Ukrainian
Audio #3
ID : 4
Format : AC-3
Format/Info : Audio Coding 3
Codec ID : A_AC3
Duration : 1h 55mn
Bit rate mode : Constant
Bit rate : 448 Kbps
Channel(s) : 6 channels
Channel positions : Front: L C R, Surround: L R, LFE
Sampling rate : 48.0 KHz
Stream size : 371 MiB (6%)
Title : Original
Language : English
Text #1
ID : 5
Format : UTF-8
Codec ID : S_TEXT/UTF8
Codec ID/Info : UTF-8 Plain Text
Language : Russian
Text #2
ID : 6
Format : UTF-8
Codec ID : S_TEXT/UTF8
Codec ID/Info : UTF-8 Plain Text
Language : English
Скриншоты:
Автор рипа: GYN

e-Commerce Partners Network
[fast-picture.ru].t537.torrent 
Торрент: Зарегистрирован   [ 2015-05-30 06:03 ] · 615C73C5431AA49B2E5B755D17057234D3CE030A

Скачать .torrent

Скачать

33 KB

Статус: проверено
Скачан: 0 раз
Размер: 6,52 GB
Правила
Последние поблагодарившие...



Показать сообщения:    

Текущее время: 03-Дек 13:38

Часовой пояс: UTC ± 0


Вы не можете начинать темы
Вы не можете отвечать на сообщения
Вы не можете редактировать свои сообщения
Вы не можете удалять свои сообщения
Вы не можете голосовать в опросах
Вы не можете прикреплять файлы к сообщениям
Вы можете скачивать файлы

Сайт не предоставляет электронные версии произведений, а занимается лишь коллекционированием и каталогизацией ссылок, присылаемых и публикуемых на форуме нашими читателями. Если вы являетесь правообладателем какого-либо представленного материала и не желаете, чтобы ссылка на него находилась в нашем каталоге, свяжитесь с нами, и мы незамедлительно удалим ее. Файлы для обмена на трекере предоставлены пользователями сайта, и администрация не несет ответственности за их содержание. Просьба не заливать файлы, защищенные авторскими правами, а также файлы нелегального содержания!