e-Commerce Partners Network




Статистика раздачи
Размер:  7,54 GB   |    Зарегистрирован:  1 год 6 месяцев   |    Скачан:  2 раза

Полного источника не было: 2 месяца 19 дней

 
   
 
 

[Цитировать]

Информация о фильме
Название: Потрошитель из Нотрдама (Экзорцизм)
Оригинальное название: L'éventreur de Notre-Dame (Exorcisme et messes noires / Exorcisms)
Год выпуска: 1975
Жанр: Эротика, ужасы
Режиссер: Хесус Франко
В ролях: Лина Ромай, Катрин Лаферьер, Хесус Франко, Надин Паскаль, Пьер Телу, Роджер Германес, Моника Свинн, Френс Николас, Сэм Марэ, Франсуа Гийом, Кэролайн Ривьер, Филипп Лебрун, Оливье Мато, Антонио де Кабо, Мария Форлан, Ричард Биготини, Клод Буассон, Раймон Арди, Клод Сендрон, Дэниэл Уайт
О фильме: Одержимый священник пытается насильно изгнать демонов из тел своих похотливых прихожанок. Он видит один способ избавить их от грешной одержимости - это убить их…

Страна: Бельгия, Франция, Испания
Студия: Cetelci S.A., Eurociné, Gold Internacional Films, Tritón P.C., Triton
Продолжительность: 01:37:54
Перевод: Авторский одноголосый (Владимир Штейн)
Файл
Кодек: MPEG-4 AVC
Качество: BDRip (1080p)
Видео: 10.0 Мбит/с, 1812x1080
Звук: Русский, английский (DTS, 2 ch, 510 Кбит/с)
Инфо-файл
Общее
Уникальный идентификатор : 190761310528436896188444826173003309421 (0x8F834AC1AC7AC25B8DD0021E7E18A16D)
Полное имя : L'éventreur de Notre-Dame. 1975. BDRip (1080p) - ylnian.mkv
Формат : Matroska
Версия формата : Version 4 / Version 2
Размер файла : 7,54 Гбайт
Продолжительность : 1 ч. 37 м.
Общий поток : 11,0 Мбит/сек
Название фильма : L'éventreur de Notre-Dame. 1975. BDRip (1080p) - ylnian (by HDLine)
Дата кодирования : UTC 2014-06-23 11:55:47
Программа кодирования : mkvmerge v6.8.0 ('Theme for Great Cities') 64bit built on Mar 2 2014 21:34:26
Библиотека кодирования : libebml v1.3.0 + libmatroska v1.4.1
Видео
Идентификатор : 1
Формат : AVC
Формат/Информация : Advanced Video Codec
Профиль формата : High@L4.1
Параметр CABAC формата : Да
Параметр ReFrames формата : 4 кадра
Идентификатор кодека : V_MPEG4/ISO/AVC
Продолжительность : 1 ч. 37 м.
Битрейт : 10000 Кбит/сек
Ширина : 1812 пикселей
Высота : 1080 пикселей
Соотношение сторон : 1,678
Режим частоты кадров : Постоянный
Частота кадров : 23,976 кадра/сек
Цветовое пространство : YUV
Субдискретизация насыщенности : 4:2:0
Битовая глубина : 8 бит
Тип развёртки : Прогрессивная
Бит/(Пиксели*Кадры) : 0.213
Размер потока : 6,69 Гбайт (89%)
Заголовок : L'éventreur de Notre-Dame. 1975. BDRip (1080p) - ylnian
Библиотека кодирования : x264 core 129 r2230 1cffe9f
Настройки программы : cabac=1 / ref=4 / deblock=1:-3:-3 / analyse=0x3:0x133 / me=umh / subme=10 / psy=1 / psy_rd=1.00:0.15 / mixed_ref=1 / me_range=32 / chroma_me=1 / trellis=2 / 8x8dct=1 / cqm=0 / deadzone=21,11 / fast_pskip=1 / chroma_qp_offset=-5 / threads=16 / lookahead_threads=2 / sliced_threads=0 / nr=0 / decimate=1 / interlaced=0 / bluray_compat=0 / constrained_intra=0 / bframes=3 / b_pyramid=2 / b_adapt=2 / b_bias=0 / direct=2 / weightb=1 / open_gop=0 / weightp=1 / keyint=240 / keyint_min=23 / scenecut=40 / intra_refresh=0 / rc_lookahead=60 / rc=2pass / mbtree=1 / bitrate=10000 / ratetol=1.0 / qcomp=0.60 / qpmin=0 / qpmax=69 / qpstep=4 / cplxblur=20.0 / qblur=0.5 / ip_ratio=1.40 / aq=1:1.00
Язык : French
Default : Да
Forced : Да
Аудио #1
Идентификатор : 2
Формат : DTS
Формат/Информация : Digital Theater Systems
Режим : 16
Параметр Endianness формата : Big
Идентификатор кодека : A_DTS
Продолжительность : 1 ч. 37 м.
Вид битрейта : Постоянный
Битрейт : 510 Кбит/сек
Каналы : 2 канала
Расположение каналов : Front: L R
Частота : 48,0 КГц
Битовая глубина : 16 бит
Метод сжатия : С потерями
Размер потока : 357 Мбайт (5%)
Заголовок : AVO (Shteyn) (DTS 2.0 510 kbps)
Язык : Russian
Default : Да
Forced : Да
Аудио #2
Идентификатор : 3
Формат : DTS
Формат/Информация : Digital Theater Systems
Режим : 16
Параметр Endianness формата : Big
Идентификатор кодека : A_DTS
Продолжительность : 1 ч. 37 м.
Вид битрейта : Постоянный
Битрейт : 510 Кбит/сек
Каналы : 2 канала
Расположение каналов : Front: L R
Частота : 48,0 КГц
Битовая глубина : 16 бит
Метод сжатия : С потерями
Размер потока : 357 Мбайт (5%)
Заголовок : DTS 2.0 510 kbps
Язык : English
Default : Нет
Forced : Нет
Скриншоты:
Релиз от: Автор релиза - ylnian

e-Commerce Partners Network
[fast-picture.ru].t554.torrent 
Торрент: Зарегистрирован   [ 2015-05-30 07:14 ] · 28A1EB1618D499A78B65FC269D8252398E74274B

Скачать .torrent

Скачать

20 KB

Статус: проверено
Скачан: 2 раз
Размер: 7,54 GB
Правила
Последние поблагодарившие...



Показать сообщения:    

Текущее время: 11-Дек 02:11

Часовой пояс: UTC ± 0


Вы не можете начинать темы
Вы не можете отвечать на сообщения
Вы не можете редактировать свои сообщения
Вы не можете удалять свои сообщения
Вы не можете голосовать в опросах
Вы не можете прикреплять файлы к сообщениям
Вы можете скачивать файлы

Сайт не предоставляет электронные версии произведений, а занимается лишь коллекционированием и каталогизацией ссылок, присылаемых и публикуемых на форуме нашими читателями. Если вы являетесь правообладателем какого-либо представленного материала и не желаете, чтобы ссылка на него находилась в нашем каталоге, свяжитесь с нами, и мы незамедлительно удалим ее. Файлы для обмена на трекере предоставлены пользователями сайта, и администрация не несет ответственности за их содержание. Просьба не заливать файлы, защищенные авторскими правами, а также файлы нелегального содержания!