e-Commerce Partners Network




Статистика раздачи
Размер:  22,62 GB   |    Зарегистрирован:  1 год 6 месяцев   |    Скачан:  0 раз

Полного источника не было: Никогда

 
   
 
 

[Цитировать]

Информация о фильме
Название: Все еще Элис
Оригинальное название: Still Alice
Год выпуска: 2014
Жанр: Драма
Выпущено: США, Backup Media, Big Indie Pictures, BSM Studio
Режиссер: Ричард Глацер, Уош Уэстмоленд
В ролях: Джулианна Мур, Алек Болдуин, Кристен Стюарт, Кейт Босворт, Шэйн МакРей, Хантер Пэрриш, Сет Гиллиам, Стефан Канкен, Дэниэл Джерролл, Куинси Тайлер Бернстайн, Максин Прескотт, Орла Кэссиди, Роза Арредондо, Зилла Глори, Калеб Фрюндлих, Шарлотта Робсон, Жан Бёрнс, Хосе Баэс, Эрин Майя Дарк, Такако Хэйвуд
О фильме: Элис Хаулэнд - профессор Колумбийского университета, книга которой "От нейронов до существительных" является краеугольным камнем в изучении лингвистики. В свои пятьдесят лет она добилась в жизни всего, о чем только мечтала: много лет она прожила в счастливом браке с любимым человеком, с которым воспитала троих прекрасных детей, и всегда занималась любимым делом, благодаря чему добилась блистательной карьеры. Однако, на одной из лекции, Элис заметила, что начала забывать простые слова. С каждым днем ситуация лишь ухудшается, из-за чего женщина начинает чувствовать жуткий дискомфорт. Через некоторое время Элис узнает, что стремительная потеря памяти является следствием ранней стадии неизлечимого заболевания, которое совсем скоро уничтожит ее...

Файл
Качество: Blu-Ray Remux (1080p)
Видео: MPEG-4 AVC, 24932 Кбит/с, 1920x1080, 23.976 кадр/с
Аудио: Русский (AC3, 6 ch, 640 Кбит/с), (DTS-HD MA, 6 ch, 2946 Кбит/c), английский (DTS-HD MA, 6 ch, 2824 Кбит/c)
Размер: 22.62 ГБ
Продолжительность: 01:41:15
Перевод: Профессиональный многоголосый, авторский
Субтитры: Русские, aнглийскиe
Сохранены оригинальные чаптеры как на Blu-Ray.
Озвучивание: Провессиональное многоголосое (Лицензия), авторское одноголосое (В.Котов)
----------------------------------------------------
Перевод и озвучка Вячеслава Котова доступна благодаря: будулайроманову, mihey10, mihaildns.
Работа со звуком - переводман.
---------------------------------------------------
Аудио1: Русский (AC3, 6 ch, 640Кбит/с) - Профессиональный многоголосый (Лицензия)
Аудио2: Русский (AC3, 6 ch, 640Кбит/с) - Авторский одноголосый (В.Котов)
Аудио3: Русский (DTS-HD MA, 6 ch, 2946 Кбит/c) - Авторский одноголосый (В.Котов)
Инфо-файл
Общее
Уникальный идентификатор : 194591279907005911365205493015162857170 (0x9264EAD372EAD0E0A6CF4907BE8F26D2)
Полное имя : D:ЗагрузкиStill.Alice.2014.BDRemux.(1080p).ExKinoRay.mkv
Формат : Matroska
Версия формата : Version 2
Размер файла : 22,6 Гбайт
Продолжительность : 1 ч. 41 м.
Режим общего битрейта : Переменный
Общий поток : 32,0 Мбит/сек
Название фильма : Все еще Элис.2014.Сборка: ollan
Дата кодирования : UTC 2015-05-29 21:07:27
Программа кодирования : mkvmerge v5.6.0 ('Kenya Kane') built on May 27 2012 16:44:04
Библиотека кодирования : libebml v1.2.3 + libmatroska v1.3.0
Видео
Идентификатор : 1
Формат : AVC
Формат/Информация : Advanced Video Codec
Профиль формата : High@L4.1
Параметр CABAC формата : Да
Параметр ReFrames формата : 2 кадра
Параметр GOP формата : M=1, N=10
Идентификатор кодека : V_MPEG4/ISO/AVC
Продолжительность : 1 ч. 41 м.
Вид битрейта : Переменный
Ширина : 1920 пикселей
Высота : 1080 пикселей
Соотношение сторон : 16:9
Режим частоты кадров : Постоянный
Частота кадров : 23,976 кадра/сек
Цветовое пространство : YUV
Субдискретизация насыщенности : 4:2:0
Битовая глубина : 8 бит
Тип развёртки : Прогрессивная
Default : Да
Forced : Нет
Аудио #1
Идентификатор : 2
Формат : AC-3
Формат/Информация : Audio Coding 3
Расширение режима : CM (complete main)
Параметр Endianness формата : Big
Идентификатор кодека : A_AC3
Продолжительность : 1 ч. 41 м.
Вид битрейта : Постоянный
Битрейт : 640 Кбит/сек
Каналы : 6 каналов
Расположение каналов : Front: L C R, Side: L R, LFE
Частота : 48,0 КГц
Битовая глубина : 16 бит
Метод сжатия : С потерями
Размер потока : 463 Мбайт (2%)
Заголовок : Профессиональный многоголосый (Лицензия)
Язык : Russian
Default : Да
Forced : Нет
Аудио #2
Идентификатор : 3
Формат : AC-3
Формат/Информация : Audio Coding 3
Расширение режима : CM (complete main)
Параметр Endianness формата : Big
Идентификатор кодека : A_AC3
Продолжительность : 1 ч. 41 м.
Вид битрейта : Постоянный
Битрейт : 640 Кбит/сек
Каналы : 6 каналов
Расположение каналов : Front: L C R, Side: L R, LFE
Частота : 48,0 КГц
Битовая глубина : 16 бит
Метод сжатия : С потерями
Размер потока : 463 Мбайт (2%)
Заголовок : Авторский (В.Котов)
Язык : Russian
Default : Нет
Forced : Нет
Аудио #3
Идентификатор : 4
Формат : DTS
Формат/Информация : Digital Theater Systems
Профиль формата : MA / Core
Режим : 16
Параметр Endianness формата : Big
Идентификатор кодека : A_DTS
Продолжительность : 1 ч. 41 м.
Вид битрейта : Переменный
Битрейт : Неизвестно / 1509 Кбит/сек
Каналы : 6 каналов
Расположение каналов : Front: L C R, Side: L R, LFE
Частота : 48,0 КГц
Битовая глубина : 24 бит
Метод сжатия : Без потерь / Lossy
Заголовок : Авторский (В.Котов)
Язык : Russian
Default : Нет
Forced : Нет
Аудио #4
Идентификатор : 5
Формат : DTS
Формат/Информация : Digital Theater Systems
Профиль формата : MA / Core
Режим : 16
Параметр Endianness формата : Big
Идентификатор кодека : A_DTS
Продолжительность : 1 ч. 41 м.
Вид битрейта : Переменный
Битрейт : Неизвестно / 1509 Кбит/сек
Каналы : 6 каналов
Расположение каналов : Front: L C R, Side: L R, LFE
Частота : 48,0 КГц
Битовая глубина : 24 бит
Метод сжатия : Без потерь / Lossy
Язык : English
Default : Нет
Forced : Нет
Текст #1
Идентификатор : 6
Формат : UTF-8
Идентификатор кодека : S_TEXT/UTF8
Идентификатор кодека/Информация : UTF-8 Plain Text
Заголовок : Full
Язык : Russian
Default : Нет
Forced : Нет
Текст #2
Идентификатор : 7
Формат : UTF-8
Идентификатор кодека : S_TEXT/UTF8
Идентификатор кодека/Информация : UTF-8 Plain Text
Заголовок : Full
Язык : English
Default : Нет
Forced : Нет
Меню
00:00:00.000 : en:Chapter 01
00:04:40.697 : en:Chapter 02
00:11:03.245 : en:Chapter 03
00:15:37.894 : en:Chapter 04
00:21:34.666 : en:Chapter 05
00:28:51.061 : en:Chapter 06
00:36:54.545 : en:Chapter 07
00:43:54.840 : en:Chapter 08
00:49:39.518 : en:Chapter 09
00:58:20.246 : en:Chapter 10
01:05:08.862 : en:Chapter 11
01:11:36.000 : en:Chapter 12
01:16:38.885 : en:Chapter 13
01:20:02.171 : en:Chapter 14
01:27:08.847 : en:Chapter 15
01:30:08.944 : en:Chapter 16
Скриншоты
Релиз от: Сборка:

e-Commerce Partners Network
[fast-picture.ru].t555.torrent 
Торрент: Зарегистрирован   [ 2015-05-30 07:16 ] · 3AA1810EEFE61E05A7A282AD17761AA1B51AE0BF

Скачать .torrent

Скачать

57 KB

Статус: проверено
Скачан: 0 раз
Размер: 22,62 GB
Правила
Последние поблагодарившие...



Показать сообщения:    

Текущее время: 09-Дек 17:23

Часовой пояс: UTC ± 0


Вы не можете начинать темы
Вы не можете отвечать на сообщения
Вы не можете редактировать свои сообщения
Вы не можете удалять свои сообщения
Вы не можете голосовать в опросах
Вы не можете прикреплять файлы к сообщениям
Вы можете скачивать файлы

Сайт не предоставляет электронные версии произведений, а занимается лишь коллекционированием и каталогизацией ссылок, присылаемых и публикуемых на форуме нашими читателями. Если вы являетесь правообладателем какого-либо представленного материала и не желаете, чтобы ссылка на него находилась в нашем каталоге, свяжитесь с нами, и мы незамедлительно удалим ее. Файлы для обмена на трекере предоставлены пользователями сайта, и администрация не несет ответственности за их содержание. Просьба не заливать файлы, защищенные авторскими правами, а также файлы нелегального содержания!