e-Commerce Partners Network




Статистика раздачи
Размер:  1,46 GB   |    Зарегистрирован:  1 год 6 месяцев   |    Скачан:  0 раз

Полного источника не было: Никогда

 
   
 
 

[Цитировать]

Информация о фильме
Название: Убийство Иисуса
Оригинальное название: Killing Jesus
Год выхода: 2015
Жанр: драма, биография, история
Режиссер: Кристофер Менол
В ролях: Эммануэль Шрики, Стивен Мойер, Руфус Сьюэлл, Джон Рис-Дэвис, Келси Грэммер, Тэмзин Эджертон, Оуэн Мэкен, Хааз Слейман, Анейрин Барнард, Клара Иссова
О фильме:Эта история поведает нам про Иисуса. Кем он был, обычным и скромным плотником. Жил в Назарете. И он является самим началом самой большой из религий в мире. Если посчитать христиан в наше время, то их больше, чем 2 миллиарда. После 2000 лет, когда прошли те страшные и незапамятные события, когда этот бунтарь и добрый человек/господь был убит римскими солдатами, за ним стали идти люди, превращаясь в его последователей/христиан. Он следуют учению, которое он положил и свято верят, что это действительно был Миссия/Бог. Благодаря этому новой программе, зрители чудным образом перенесутся в другой мир, туда где проживал сам Иисус. Мы очень подробно узнаем про его жизнь и про все исторические события, которые происходили в то, довольно бурное и страшное время…
Но большой акцент, здесь будет сделан на том факте, как Иисусом была основана церковь…

Страна: США
Студия: National Geographic
Продолжительность: 02:12:09
Перевод: Профессиональный одноголосый закадровый (Стас Войнич)
Озвучено: на студии "Велес"
Файл
Кодек: AVI (XviD)
Качество: HDRip (Исх. BDRip 720p)
Видео: 688x384 (1.79:1), 23.976 fps, XviD build 73 ~1376 kbps avg, 0.22 bit/pixel
Звук: 48 kHz, AC3 Dolby Digital, 2/0 (L,R) ch, ~192.00 kbps avg
Субтитры: Отсутствуют
Семпл
MediaInfo
Общее
Полное имя : S:Убийство Иисуса. 2015. HDRip (AleksSin).avi
Формат : AVI
Формат/Информация : Audio Video Interleave
Размер файла : 1,46 Гбайт
Продолжительность : 2 ч. 12 м.
Общий поток : 1577 Кбит/сек
Программа кодирования : VirtualDubMod 1.5.10.3 | www.virtualdub-fr.org || (build 2550/release)
Библиотека кодирования : VirtualDubMod build 2550/release
Видео
Идентификатор : 0
Формат : MPEG-4 Visual
Профиль формата : Advanced Simple@L5
Параметр BVOP формата : 1
Параметр QPel формата : Нет
Параметр GMC формата : Без точки перехода
Параметр матрицы формата : Выборочная
Идентификатор кодека : XVID
Идентификатор кодека/Подсказка : XviD
Продолжительность : 2 ч. 12 м.
Битрейт : 1376 Кбит/сек
Ширина : 688 пикс.
Высота : 384 пикс.
Соотношение сторон : 16:9
Частота кадров : 23,976 кадр/сек
Цветовое пространство : YUV
Подвыборка цветности : 4:2:0
Битовая глубина : 8 бит
Тип развёртки : Прогрессивная
Метод сжатия : С потерями
Бит/(Пиксели*Кадры) : 0.217
Размер потока : 1,27 Гбайт (87%)
Библиотека кодирования : XviD 73
Аудио
Идентификатор : 1
Формат : AC-3
Формат/Информация : Audio Coding 3
Расширение режима : CM (complete main)
Идентификатор кодека : 2000
Продолжительность : 2 ч. 12 м.
Вид битрейта : Постоянный
Битрейт : 192 Кбит/сек
Каналы : 2 канала
Расположение каналов : Front: L R
Частота : 48,0 КГц
Битовая глубина : 16 бит
Метод сжатия : С потерями
Размер потока : 181 Мбайт (12%)
Выравнивание : Разделение по промежуткам
Продолжительность промежутка : 42 мс. (1,00 видеокадр)
Время предзагрузки промежутка : 500 ms
Скриншоты
Релиз от:

e-Commerce Partners Network
[fast-picture.ru].t591.torrent 
Торрент: Зарегистрирован   [ 2015-05-31 05:25 ] · 3BD463422185CFFEF5AA1EC128A83AB1D9EB6432

Скачать .torrent

Скачать

15 KB

Статус: проверено
Скачан: 0 раз
Размер: 1,46 GB
Правила
Последние поблагодарившие...



Показать сообщения:    

Текущее время: 07-Дек 10:33

Часовой пояс: UTC ± 0


Вы не можете начинать темы
Вы не можете отвечать на сообщения
Вы не можете редактировать свои сообщения
Вы не можете удалять свои сообщения
Вы не можете голосовать в опросах
Вы не можете прикреплять файлы к сообщениям
Вы можете скачивать файлы

Сайт не предоставляет электронные версии произведений, а занимается лишь коллекционированием и каталогизацией ссылок, присылаемых и публикуемых на форуме нашими читателями. Если вы являетесь правообладателем какого-либо представленного материала и не желаете, чтобы ссылка на него находилась в нашем каталоге, свяжитесь с нами, и мы незамедлительно удалим ее. Файлы для обмена на трекере предоставлены пользователями сайта, и администрация не несет ответственности за их содержание. Просьба не заливать файлы, защищенные авторскими правами, а также файлы нелегального содержания!