e-Commerce Partners Network




Статистика раздачи
Размер:  1,56 GB   |    Зарегистрирован:  1 год 6 месяцев   |    Скачан:  2 раза

Полного источника не было: 1 год 4 месяца

 
   
 
 

[Цитировать]

Информация о фильме
Название: Кунг Фьюри
Оригинальное название: Kung Fury
Год выхода: 2015
Жанр: боевик, фантастика, комедия
Режиссер: Дэвид Сандберг
В ролях: Дэвид Сандберг, Йорма Такконе, Леопольд Нильссон, Стивен Чю, Андреас Кахлинг, Эрик Хёрнквист, Элени Янг, Хелен Алсон, Пер-Хенрик Арвидус, Эос Карлссон
О фильме: В Майами 80-х появляется самый опасный преступник всех времен — Адольф Гитлер, по прозвищу Кунг Фюрер. Суперкоп Кунг Фьюри решает совершить путешествие во времени в нацистскую Германию, чтобы убить Гитлера и положить конец нацистской империи.

Страна: Швеция
Продолжительность: 00:30:20
Перевод: Любительский(многоголосый закадровый) OMSKBIRD records
Файл
Кодек: AVC/H.264
Качество: WEB-DL 1080p
Видео: 1920x1080 (1.778), 25.000 fps, 6689 kbps
Звук:
Аудио rus: AC3, 2 ch, 256 Kbps, CBR - Многоголосый закадровый | OMSKBIRD records
Аудио eng: AC-3, 2 ch, 256 kbps, CBR - оригинал
Субтитры: русские, английские
Семпл
Релиз
Роли озвучивали: Владислав Данилов, Павел Ярощик, Алекс Дьяк и Ольга Федорова
Звукорежиссер: Павел Ярощик
Монтаж, работа со звуком, синхронизация субтитров : Skyns61
MediaInfo
Общее
Уникальный идентификатор : 170296565338403206523387549126846458525 (0x801DECEB05A910A69F6FD4CEC7BE2A9D)
Полное имя : F:FilmsKung.Fury.2015.1080p.WEB-DL.OmskBirdKung.Fury.2015.1080p.WEB-DL.OmskBird.mkv
Формат : Matroska
Версия формата : Version 4 / Version 2
Размер файла : 1,56 Гбайт
Продолжительность : 30 м.
Общий поток : 7347 Кбит/сек
Дата кодирования : UTC 2015-05-30 21:45:38
Программа кодирования : mkvmerge v7.9.0 ('Birds') 64bit
Библиотека кодирования : libebml v1.3.1 + libmatroska v1.4.2
DURATION : 00:28:42.400000000
NUMBER_OF_FRAMES : 261
NUMBER_OF_BYTES : 14518
_STATISTICS_WRITING_APP : mkvmerge v7.9.0 ('Birds') 64bit
_STATISTICS_WRITING_DATE_UTC : 2015-05-30 21:45:38
_STATISTICS_TAGS : BPS DURATION NUMBER_OF_FRAMES NUMBER_OF_BYTES
Видео
Идентификатор : 1
Формат : AVC
Формат/Информация : Advanced Video Codec
Профиль формата : High@L5.0
Параметр CABAC формата : Да
Параметр ReFrames формата : 8 кадров
Параметр GOP формата : N=1
Идентификатор кодека : V_MPEG4/ISO/AVC
Продолжительность : 30 м.
Битрейт : 6689 Кбит/сек
Ширина : 1920 пикселей
Высота : 1080 пикселей
Соотношение сторон : 16:9
Режим частоты кадров : Постоянный
Частота кадров : 25,000 кадров/сек
Цветовое пространство : YUV
Субдискретизация насыщенности : 4:2:0
Битовая глубина : 8 бит
Тип развёртки : Прогрессивная
Бит/(Пиксели*Кадры) : 0.129
Размер потока : 1,42 Гбайт (91%)
Библиотека кодирования : Zencoder Video Encoding System
Default : Да
Forced : Нет
Основные цвета : BT.709
Характеристики трансфера : BT.709
Коэффициенты матрицы : BT.709
colour_range : Limited
Аудио #1
Идентификатор : 2
Формат : AC-3
Формат/Информация : Audio Coding 3
Расширение режима : CM (complete main)
Параметр Endianness формата : Big
Идентификатор кодека : A_AC3
Продолжительность : 30 м.
Вид битрейта : Постоянный
Битрейт : 256 Кбит/сек
Каналы : 2 канала
Расположение каналов : Front: L R
Частота : 48,0 КГц
Битовая глубина : 16 бит
Метод сжатия : С потерями
Размер потока : 55,6 Мбайт (3%)
Заголовок : OmskBird 2.0
Язык : Russian
Default : Да
Forced : Нет
Аудио #2
Идентификатор : 3
Формат : AC-3
Формат/Информация : Audio Coding 3
Расширение режима : CM (complete main)
Параметр Endianness формата : Big
Идентификатор кодека : A_AC3
Продолжительность : 30 м.
Вид битрейта : Постоянный
Битрейт : 256 Кбит/сек
Каналы : 2 канала
Расположение каналов : Front: L R
Частота : 48,0 КГц
Битовая глубина : 16 бит
Метод сжатия : С потерями
Размер потока : 55,6 Мбайт (3%)
Заголовок : eng
Язык : English
Default : Нет
Forced : Нет
Текст #1
Идентификатор : 4
Формат : UTF-8
Идентификатор кодека : S_TEXT/UTF8
Идентификатор кодека/Информация : UTF-8 Plain Text
Заголовок : rus
Язык : Russian
Default : Нет
Forced : Нет
Текст #2
Идентификатор : 5
Формат : UTF-8
Идентификатор кодека : S_TEXT/UTF8
Идентификатор кодека/Информация : UTF-8 Plain Text
Заголовок : eng
Язык : English
Default : Нет
Forced : Нет
Скриншоты
Релиз от: Skyns61

e-Commerce Partners Network
[fast-picture.ru].t619.torrent 
Торрент: Зарегистрирован   [ 2015-05-31 11:06 ] · BF9C4611BA40187989040B82E0FFAA7EA5250CFF

Скачать .torrent

Скачать

16 KB

Статус: проверено
Скачан: 2 раз
Размер: 1,56 GB
Правила
Последние поблагодарившие...



Показать сообщения:    

Текущее время: 09-Дек 19:20

Часовой пояс: UTC ± 0


Вы не можете начинать темы
Вы не можете отвечать на сообщения
Вы не можете редактировать свои сообщения
Вы не можете удалять свои сообщения
Вы не можете голосовать в опросах
Вы не можете прикреплять файлы к сообщениям
Вы можете скачивать файлы

Сайт не предоставляет электронные версии произведений, а занимается лишь коллекционированием и каталогизацией ссылок, присылаемых и публикуемых на форуме нашими читателями. Если вы являетесь правообладателем какого-либо представленного материала и не желаете, чтобы ссылка на него находилась в нашем каталоге, свяжитесь с нами, и мы незамедлительно удалим ее. Файлы для обмена на трекере предоставлены пользователями сайта, и администрация не несет ответственности за их содержание. Просьба не заливать файлы, защищенные авторскими правами, а также файлы нелегального содержания!